Red Hot Chili Peppers – Greatest Hits (Limited Japanese Edition)




[Total: 0    Average: 0/5]

Artist: Red Hot Chili Peppers
Year: 2003/2006
Genre: Rock
Notes: Discogs
Add. Notes: Limited Japanese Edition
Cover incl.: Yes
Encoder: FLAC
Bitrate: ~1000 kBit/s (44.1 kHz/16 Bit/s)
Log & Cue incl.: Yes
Size: 508,24 MB
Password: “slam” (without ” “)


All Downloads/Hosters are compatible

Download 1
Share-online.biz
KatFile.com
Rapidgator.net
Turbobit.net
Download 2
Share-online.biz
KatFile.com
Rapidgator.net
Turbobit.net

Tracklist:

1 - Under The Bridge - 4:33
2 - Give It Away - 4:44
3 - Californication - 5:29
4 - Scar Tissue - 3:35
5 - Soul To Squeeze - 4:50
6 - Otherside - 4:15
7 - Suck My Kiss - 3:35
8 - By The Way - 3:35
9 - Parallel Universe - 4:29
10 - Breaking The Girl - 4:54
11 - My Friends - 4:09
12 - Higher Ground - 3:22
13 - Universally Speaking - 4:16
14 - Road Trippin' - 3:25
15 - Fortune Faded - 3:21
16 - Save The Population - 4:07

EAC-Log, CUE-Sheed & NFO:

Click to open spoiler
Exact Audio Copy V0.99 prebeta 4 from 23. January 2008

Отчёт EAC об извлечении, выполненном 14. июля 2009, 20:20

Red Hot Chili Peppers / Greatest Hits

Дисковод: PLEXTOR DVDR PX-800A Adapter: 0 ID: 0

Режим чтения : Достоверность
Использование точного потока : Да
Отключение кэша аудио : Да
Использование указателей C2 : Нет

Коррекция смещения при чтении : 48
Способность читать области Lead-in и Lead-out : Нет
Заполнение пропущенных сэмплов тишиной : Да
Удаление блоков с тишиной в начале и конце : Нет
При вычислениях CRC использовались нулевые сэмплы : Да
Интерфейс : Встроенный Win32-интерфейс для Win NT/2000

Выходной формат : Внутренние WAV-операции
Формат сэмплов : 44.100 Гц; 16 бит; стерео

TOC извлечённого CD

Трек | Старт | Длительность | Начальный сектор | Конечный сектор
———————————————————————
1 | 0:00.00 | 4:33.20 | 0 | 20494
2 | 4:33.20 | 4:44.70 | 20495 | 41864
3 | 9:18.15 | 5:29.50 | 41865 | 66589
4 | 14:47.65 | 3:35.70 | 66590 | 82784
5 | 18:23.60 | 4:50.35 | 82785 | 104569
6 | 23:14.20 | 4:15.25 | 104570 | 123719
7 | 27:29.45 | 3:35.50 | 123720 | 139894
8 | 31:05.20 | 3:35.40 | 139895 | 156059
9 | 34:40.60 | 4:29.30 | 156060 | 176264
10 | 39:10.15 | 4:54.10 | 176265 | 198324
11 | 44:04.25 | 4:09.08 | 198325 | 217007
12 | 48:13.33 | 3:23.17 | 217008 | 232249
13 | 51:36.50 | 4:17.00 | 232250 | 251524
14 | 55:53.50 | 3:25.40 | 251525 | 266939
15 | 59:19.15 | 3:21.25 | 266940 | 282039
16 | 62:40.40 | 4:05.48 | 282040 | 300462

Характеристики диапазона извлечения и сообщения об ошибках

Выбранный диапазон

Имя файла F:\Temp\111\Red Hot Chili Peppers\2003 Greatest Hits.wav

Пиковый уровень 100.0 %
Качество диапазона 99.9 %
CRC копии BD32FA6E
Копирование… OK

Ошибок не произошло

Конец отчёта

REM GENRE Rock
REM DATE 2003
REM DISCID F80FA610
REM COMMENT “ExactAudioCopy v0.99pb4”
PERFORMER “Red Hot Chili Peppers”
TITLE “Greatest Hits”
FILE “2003 Greatest Hits.wav” WAVE
TRACK 01 AUDIO
TITLE “Under The Bridge”
PERFORMER “Red Hot Chili Peppers”
INDEX 01 00:00:00
TRACK 02 AUDIO
TITLE “Give It Away”
PERFORMER “Red Hot Chili Peppers”
INDEX 01 04:33:20
TRACK 03 AUDIO
TITLE “Californication”
PERFORMER “Red Hot Chili Peppers”
INDEX 01 09:18:15
TRACK 04 AUDIO
TITLE “Scar Tissue”
PERFORMER “Red Hot Chili Peppers”
INDEX 01 14:47:65
TRACK 05 AUDIO
TITLE “Soul To Squeeze”
PERFORMER “Red Hot Chili Peppers”
INDEX 01 18:23:60
TRACK 06 AUDIO
TITLE “Otherside”
PERFORMER “Red Hot Chili Peppers”
INDEX 01 23:14:20
TRACK 07 AUDIO
TITLE “Suck My Kiss”
PERFORMER “Red Hot Chili Peppers”
INDEX 01 27:29:45
TRACK 08 AUDIO
TITLE “By The Way”
PERFORMER “Red Hot Chili Peppers”
INDEX 00 31:04:55
INDEX 01 31:05:20
TRACK 09 AUDIO
TITLE “Parallel Universe”
PERFORMER “Red Hot Chili Peppers”
INDEX 01 34:40:60
TRACK 10 AUDIO
TITLE “Breaking The Girl”
PERFORMER “Red Hot Chili Peppers”
INDEX 01 39:10:15
TRACK 11 AUDIO
TITLE “My Friends”
PERFORMER “Red Hot Chili Peppers”
INDEX 01 44:04:25
TRACK 12 AUDIO
TITLE “Higher Ground”
PERFORMER “Red Hot Chili Peppers”
INDEX 01 48:13:33
TRACK 13 AUDIO
TITLE “Universally Speaking”
PERFORMER “Red Hot Chili Peppers”
INDEX 01 51:36:50
TRACK 14 AUDIO
TITLE “Road Trippin'”
PERFORMER “Red Hot Chili Peppers”
INDEX 01 55:53:50
TRACK 15 AUDIO
TITLE “Fortune Faded”
PERFORMER “Red Hot Chili Peppers”
INDEX 00 59:18:53
INDEX 01 59:19:15
TRACK 16 AUDIO
TITLE “Save The Population”
PERFORMER “Red Hot Chili Peppers”
INDEX 01 62:40:40


Spread the Download

Leave a Reply

Your email address will not be published. Required fields are marked *

Enter the text from the image below
 

This site uses Akismet to reduce spam. Learn how your comment data is processed.