Red Hot Chili Peppers – By the Way (Limited Japanese Edition)




Artist: Red Hot Chili Peppers
Year: 2002
Genre: Alternative
Notes: Discogs
Add. Notes: Limited Japanese Edition
Cover incl.: Yes
Encoder: FLAC
Bitrate: ~1000 kBit/s (44.1 kHz/16 Bit/s)
Log & Cue incl.: Yes
Size: 549 MB
Password: “slam” (without ” “)


All Downloads/Hosters are compatible

Download 1
KatFile.com
Turbobit.net
Rapidgator.net
FileFactory.com
Download 2
KatFile.com
Turbobit.net
Rapidgator.net
FileFactory.com

Tracklist:

1 - By The Way - 3:38
2 - Universally Speaking - 4:19
3 - This Is The Place - 4:18
4 - Dosed - 5:12
5 - Don't Forget Me - 4:38
6 - The Zephyr Song - 3:53
7 - Can't Stop - 4:29
8 - I Could Die For You - 3:14
9 - Midnight - 4:56
10 - Throw Away Your Television - 
3:45
11 - Cabron - 3:38
12 - Tear - 5:17
13 - On Mercury - 3:28
14 - Minor Thing - 3:38
15 - Warm Tape - 4:17
16 - Venice Queen - 6:08
17 - Time - 3:47

EAC-Log, CUE-Sheed & NFO:

Click to open spoiler
Exact Audio Copy V0.99 prebeta 4 from 23. January 2008

Отчёт EAC об извлечении, выполненном 18. октября 2009, 9:51

Red Hot Chili Peppers / By the Way

Дисковод: PLEXTOR DVDR PX-800A Adapter: 0 ID: 0

Режим чтения : Достоверность
Использование точного потока : Да
Отключение кэша аудио : Да
Использование указателей C2 : Нет

Коррекция смещения при чтении : 48
Способность читать области Lead-in и Lead-out : Нет
Заполнение пропущенных сэмплов тишиной : Да
Удаление блоков с тишиной в начале и конце : Нет
При вычислениях CRC использовались нулевые сэмплы : Да
Интерфейс : Встроенный Win32-интерфейс для Win NT/2000

Выходной формат : Внутренние WAV-операции
Формат сэмплов : 44.100 Гц; 16 бит; стерео

TOC извлечённого CD

Трек | Старт | Длительность | Начальный сектор | Конечный сектор
———————————————————————
1 | 0:00.00 | 3:37.70 | 0 | 16344
2 | 3:37.70 | 4:19.10 | 16345 | 35779
3 | 7:57.05 | 4:17.50 | 35780 | 55104
4 | 12:14.55 | 5:12.10 | 55105 | 78514
5 | 17:26.65 | 4:37.65 | 78515 | 99354
6 | 22:04.55 | 3:52.65 | 99355 | 116819
7 | 25:57.45 | 4:29.25 | 116820 | 137019
8 | 30:26.70 | 3:13.60 | 137020 | 151554
9 | 33:40.55 | 4:55.45 | 151555 | 173724
10 | 38:36.25 | 3:44.55 | 173725 | 190579
11 | 42:21.05 | 3:38.30 | 190580 | 206959
12 | 45:59.35 | 5:17.25 | 206960 | 230759
13 | 51:16.60 | 3:28.30 | 230760 | 246389
14 | 54:45.15 | 3:37.55 | 246390 | 262719
15 | 58:22.70 | 4:16.45 | 262720 | 281964
16 | 62:39.40 | 6:08.00 | 281965 | 309564
17 | 68:47.40 | 3:47.03 | 309565 | 326592

Характеристики диапазона извлечения и сообщения об ошибках

Выбранный диапазон

Имя файла F:\Temp\111\Red Hot Chili Peppers\2002 By the Way (Japan WPCR-12313).wav

Пиковый уровень 100.0 %
Качество диапазона 100.0 %
CRC копии E983E736
Копирование… OK

Ошибок не произошло

Конец отчёта

REM GENRE Alternative
REM DATE 2002
REM DISCID F7110211
REM COMMENT “ExactAudioCopy v0.99pb4”
PERFORMER “Red Hot Chili Peppers”
TITLE “By the Way”
FILE “2002 By the Way (Japan WPCR-12313).wav” WAVE
TRACK 01 AUDIO
TITLE “By The Way”
PERFORMER “Red Hot Chili Peppers”
INDEX 01 00:00:00
TRACK 02 AUDIO
TITLE “Universally Speaking”
PERFORMER “Red Hot Chili Peppers”
INDEX 00 03:36:70
INDEX 01 03:37:70
TRACK 03 AUDIO
TITLE “This Is The Place”
PERFORMER “Red Hot Chili Peppers”
INDEX 00 07:56:18
INDEX 01 07:57:05
TRACK 04 AUDIO
TITLE “Dosed”
PERFORMER “Red Hot Chili Peppers”
INDEX 01 12:14:55
TRACK 05 AUDIO
TITLE “Don’t Forget Me”
PERFORMER “Red Hot Chili Peppers”
INDEX 00 17:26:48
INDEX 01 17:26:65
TRACK 06 AUDIO
TITLE “The Zephyr Song”
PERFORMER “Red Hot Chili Peppers”
INDEX 00 22:04:03
INDEX 01 22:04:55
TRACK 07 AUDIO
TITLE “Can’t Stop”
PERFORMER “Red Hot Chili Peppers”
INDEX 00 25:56:53
INDEX 01 25:57:45
TRACK 08 AUDIO
TITLE “I Could Die For You”
PERFORMER “Red Hot Chili Peppers”
INDEX 00 30:26:48
INDEX 01 30:26:70
TRACK 09 AUDIO
TITLE “Midnight”
PERFORMER “Red Hot Chili Peppers”
INDEX 00 33:39:58
INDEX 01 33:40:55
TRACK 10 AUDIO
TITLE “Throw Away Your Television”
PERFORMER “Red Hot Chili Peppers”
INDEX 01 38:36:25
TRACK 11 AUDIO
TITLE “Cabron”
PERFORMER “Red Hot Chili Peppers”
INDEX 01 42:21:05
TRACK 12 AUDIO
TITLE “Tear”
PERFORMER “Red Hot Chili Peppers”
INDEX 01 45:59:35
TRACK 13 AUDIO
TITLE “On Mercury”
PERFORMER “Red Hot Chili Peppers”
INDEX 00 51:16:38
INDEX 01 51:16:60
TRACK 14 AUDIO
TITLE “Minor Thing”
PERFORMER “Red Hot Chili Peppers”
INDEX 00 54:44:35
INDEX 01 54:45:15
TRACK 15 AUDIO
TITLE “Warm Tape”
PERFORMER “Red Hot Chili Peppers”
INDEX 00 58:22:33
INDEX 01 58:22:70
TRACK 16 AUDIO
TITLE “Venice Queen”
PERFORMER “Red Hot Chili Peppers”
INDEX 00 62:38:70
INDEX 01 62:39:40
TRACK 17 AUDIO
TITLE “Time [Bonus Track]”
PERFORMER “Red Hot Chili Peppers”
INDEX 00 68:46:43
INDEX 01 68:47:40


Leave a Reply

Your email address will not be published. Required fields are marked *

This site uses Akismet to reduce spam. Learn how your comment data is processed.