Red – Gone




[Total: 0    Average: 0/5]

Artist: Red
Year: 2017
Genre: Metal
Notes: Discogs
Add. Notes:
Cover incl.: Yes
Encoder: FLAC
Bitrate: ~1000 kBit/s (44.1 kHz/16 Bit/s)
Log & Cue incl.: Yes
Size: 268,26 MB
Password: “slam” (without ” “)


All Downloads/Hosters are compatible

Download 1
Share-online.biz
KatFile.com
Rapidgator.net
NitroFlare.com
Download 2
Share-online.biz
KatFile.com
Rapidgator.net
NitroFlare.com

Tracklist:

1 - Step Inside, The Violence - 3:04
2 - Still Alive - 3:19
3 - Losing Control - 4:10
4 - Gone - 3:39
5 - Coming Apart - 3:55
6 - Unstoppable - 3:40
7 - Fracture - 3:09
8 - Chasing Your Echo - 3:36
9 - A.I. - 4:10
10 - Singularity - 5:10

EAC-Log, CUE-Sheed & NFO:

Click to open spoiler
Exact Audio Copy V1.3 from 2. September 2016

Отчёт EAC об извлечении, выполненном 27. января 2019, 13:50

Red / Gone

Дисковод: ASUS BW-12B1ST Adapter: 1 ID: 0

Режим чтения : Достоверность
Использование точного потока : Да
Отключение кэша аудио : Да
Использование указателей C2 : Нет

Коррекция смещения при чтении : 6
Способность читать области Lead-in и Lead-out : Нет
Заполнение пропущенных сэмплов тишиной : Да
Удаление блоков с тишиной в начале и конце : Нет
При вычислениях CRC использовались нулевые сэмплы : Да
Интерфейс : Встроенный Win32-интерфейс для Win NT/2000

Выходной формат : Внутренние WAV-операции
Формат сэмплов : 44.100 Гц; 16 бит; стерео

TOC извлечённого CD

Трек | Старт | Длительность | Начальный сектор | Конечный сектор
———————————————————————
1 | 0:00.00 | 3:04.32 | 0 | 13831
2 | 3:04.32 | 3:19.70 | 13832 | 28826
3 | 6:24.27 | 4:10.34 | 28827 | 47610
4 | 10:34.61 | 3:39.32 | 47611 | 64067
5 | 14:14.18 | 3:55.30 | 64068 | 81722
6 | 18:09.48 | 3:40.39 | 81723 | 98261
7 | 21:50.12 | 3:09.01 | 98262 | 112437
8 | 24:59.13 | 3:36.50 | 112438 | 128687
9 | 28:35.63 | 4:10.53 | 128688 | 147490
10 | 32:46.41 | 5:11.03 | 147491 | 170818

Характеристики диапазона извлечения и сообщения об ошибках

Выбранный диапазон

Имя файла D:\EAC\Evgenius1986\Red – 2017 – Gone (Essential Records – 83061-1055-2)\Red – 2017 – Gone.wav

Пиковый уровень 100.0 %
Скорость извлечения 3.2 X
Качество диапазона 100.0 %
CRC теста 82AF17BC
CRC копии 82AF17BC
Копирование… OK

Ошибок не произошло

AccurateRip: сводка

Трек 1 : извлечено точно (доверие 12) [7D2813E5] (AR v2)
Трек 2 : извлечено точно (доверие 12) [2A853949] (AR v2)
Трек 3 : извлечено точно (доверие 12) [87D21201] (AR v2)
Трек 4 : извлечено точно (доверие 12) [1653EC4C] (AR v2)
Трек 5 : извлечено точно (доверие 12) [6C26E65A] (AR v2)
Трек 6 : извлечено точно (доверие 12) [D32FE539] (AR v2)
Трек 7 : извлечено точно (доверие 12) [B7487018] (AR v2)
Трек 8 : извлечено точно (доверие 12) [293C14ED] (AR v2)
Трек 9 : извлечено точно (доверие 12) [BCDD2185] (AR v2)
Трек 10 : извлечено точно (доверие 12) [44165527] (AR v2)

Все треки извлечены точно

Конец отчёта

—- CUETools DB Plugin V2.1.6

[CTDB TOCID: J7iL1SbHp4E.08E9h8Q6q8HmgrU-] found
Submit result: J7iL1SbHp4E.08E9h8Q6q8HmgrU- has been confirmed
Track | CTDB Status
1 | (59/59) Accurately ripped
2 | (59/59) Accurately ripped
3 | (59/59) Accurately ripped
4 | (59/59) Accurately ripped
5 | (59/59) Accurately ripped
6 | (59/59) Accurately ripped
7 | (59/59) Accurately ripped
8 | (59/59) Accurately ripped
9 | (59/59) Accurately ripped
10 | (59/59) Accurately ripped

==== Контрольная сумма отчёта CB582A9D3A62889590FE6B8F3D814CA09AA6612D413217C5908C03A97A0EB4CC ====

REM GENRE Alternative
REM DATE 2017
REM DISCID 8508E50A
REM COMMENT “ExactAudioCopy v1.3”
PERFORMER “Red”
TITLE “Gone”
REM COMPOSER “”
FILE “Red – 2017 – Gone.flac” WAVE
TRACK 01 AUDIO
TITLE “Step Inside, the Violence”
PERFORMER “Red”
REM COMPOSER “”
ISRC USA5W1700260
INDEX 01 00:00:00
TRACK 02 AUDIO
TITLE “Still Alive”
PERFORMER “Red”
REM COMPOSER “”
ISRC USA5W1700261
INDEX 01 03:04:32
TRACK 03 AUDIO
TITLE “Losing Control”
PERFORMER “Red”
REM COMPOSER “”
ISRC USA5W1700262
INDEX 01 06:24:27
TRACK 04 AUDIO
TITLE “Gone”
PERFORMER “Red”
REM COMPOSER “”
ISRC USA5W1700263
INDEX 01 10:34:61
TRACK 05 AUDIO
TITLE “Coming Apart”
PERFORMER “Red”
REM COMPOSER “”
ISRC USA5W1700264
INDEX 01 14:14:18
TRACK 06 AUDIO
TITLE “Unstoppable”
PERFORMER “Red”
REM COMPOSER “”
ISRC USA5W1700265
INDEX 01 18:09:48
TRACK 07 AUDIO
TITLE “Fracture”
PERFORMER “Red”
REM COMPOSER “”
ISRC USA5W1700266
INDEX 01 21:50:12
TRACK 08 AUDIO
TITLE “Chasing Your Echo”
PERFORMER “Red”
REM COMPOSER “”
ISRC USA5W1700267
INDEX 01 24:59:13
TRACK 09 AUDIO
TITLE “A.I.”
PERFORMER “Red”
REM COMPOSER “”
ISRC USA5W1700268
INDEX 01 28:35:63
TRACK 10 AUDIO
TITLE “Singularity”
PERFORMER “Red”
REM COMPOSER “”
ISRC USA5W1700269
INDEX 01 32:46:41


Spread the Download

Leave a Reply

Your email address will not be published. Required fields are marked *

Enter the text from the image below
 

This site uses Akismet to reduce spam. Learn how your comment data is processed.