Red – End Of Silence (Deluxe Edition)




Artist: Red
Year: 2006
Genre: Rock
Notes: Discogs
Add. Notes: Deluxe Edition
Cover incl.: Yes
Encoder: FLAC
Bitrate: ~1000 kBit/s (44.1 kHz/16 Bit/s)
Log & Cue incl.: Yes
Size: 353,66 MB
Password: “slam” (without ” “)


All Downloads/Hosters are compatible

Download 1
Turbobit.net
NitroFlare.com
KatFile.com
Rapidgator.net
Download 2
Turbobit.net
NitroFlare.com
KatFile.com
Rapidgator.net

Tracklist:

1 - Intro (End Of Silence) - 0:58
2 - Breathe Into Me - 3:34
3 - Let Go - 5:15
4 - Already Over - 4:24
5 - Lost - 5:15
6 - Pieces - 5:58
7 - Break Me Down - 4:14
8 - Wasting Time - 3:21
9 - Gave It All Away - 3:13
10 - Hide - 5:27
11 - Already Over, Pt. 2 - 5:10
Bonus Track
12 - Lost (Acoustic Version) - 4:28

EAC-Log, CUE-Sheed & NFO:

Click to open spoiler
Exact Audio Copy V1.0 beta 3 from 29. August 2011

Отчёт EAC об извлечении, выполненном 23. сентября 2013, 20:43

Red / End Of Silence

Дисковод: ASUS BW-12B1ST Adapter: 3 ID: 0

Режим чтения : Достоверность
Использование точного потока : Да
Отключение кэша аудио : Да
Использование указателей C2 : Нет

Коррекция смещения при чтении : 6
Способность читать области Lead-in и Lead-out : Нет
Заполнение пропущенных сэмплов тишиной : Да
Удаление блоков с тишиной в начале и конце : Нет
При вычислениях CRC использовались нулевые сэмплы : Да
Интерфейс : Встроенный Win32-интерфейс для Win NT/2000

Выходной формат : Внутренние WAV-операции
Формат сэмплов : 44.100 Гц; 16 бит; стерео

TOC извлечённого CD

Трек | Старт | Длительность | Начальный сектор | Конечный сектор
———————————————————————
1 | 0:00.00 | 0:58.37 | 0 | 4386
2 | 0:58.37 | 3:34.28 | 4387 | 20464
3 | 4:32.65 | 5:15.56 | 20465 | 44145
4 | 9:48.46 | 4:24.71 | 44146 | 64016
5 | 14:13.42 | 5:15.24 | 64017 | 87665
6 | 19:28.66 | 5:58.28 | 87666 | 114543
7 | 25:27.19 | 4:14.72 | 114544 | 133665
8 | 29:42.16 | 3:21.18 | 133666 | 148758
9 | 33:03.34 | 3:13.37 | 148759 | 163270
10 | 36:16.71 | 5:28.15 | 163271 | 187885
11 | 41:45.11 | 5:11.01 | 187886 | 211211
12 | 46:56.12 | 4:28.63 | 211212 | 231374

Характеристики диапазона извлечения и сообщения об ошибках

Выбранный диапазон

Имя файла D:\EAC\Red – 2006 – End Of Silence (Deluxe Edition) (Essential Records ‎– 83061 0865 2)\Red – 2006 – End Of Silence.wav

Пиковый уровень 99.9 %
Скорость извлечения 7.0 X
Качество диапазона 100.0 %
CRC теста C5916CFA
CRC копии C5916CFA
Копирование… OK

Ошибок не произошло

AccurateRip: сводка

Трек 1 : извлечено точно (доверие 7) [28246AFD] (AR v2)
Трек 2 : извлечено точно (доверие 7) [34BFFDAF] (AR v2)
Трек 3 : извлечено точно (доверие 7) [7BEF1F10] (AR v2)
Трек 4 : извлечено точно (доверие 7) [C5CBD619] (AR v2)
Трек 5 : извлечено точно (доверие 7) [85F79C51] (AR v2)
Трек 6 : извлечено точно (доверие 7) [E84DDE1B] (AR v2)
Трек 7 : извлечено точно (доверие 7) [400812E9] (AR v2)
Трек 8 : извлечено точно (доверие 7) [E373ACD1] (AR v2)
Трек 9 : извлечено точно (доверие 7) [28EB5786] (AR v2)
Трек 10 : извлечено точно (доверие 7) [19F853EF] (AR v2)
Трек 11 : извлечено точно (доверие 7) [1425C246] (AR v2)
Трек 12 : извлечено точно (доверие 7) [2CC220D6] (AR v2)

Все треки извлечены точно

Конец отчёта

==== Контрольная сумма отчёта 23E8C68638B9761939ED2BF89E7A8CC16E9751FCA94D1A693EBBD36A12B48A1C ====

REM GENRE Rock
REM DATE 2006
REM DISCID AD0C0D0C
REM COMMENT “ExactAudioCopy v1.0b3”
CATALOG 0083061086527
PERFORMER “Red”
TITLE “End Of Silence”
FILE “Red – 2006 – End Of Silence.flac” WAVE
TRACK 01 AUDIO
TITLE “Intro (End Of Silence)”
PERFORMER “Red”
ISRC USA5W0600043
INDEX 01 00:00:00
TRACK 02 AUDIO
TITLE “Breathe into me”
PERFORMER “Red”
ISRC USA5W0600044
INDEX 01 00:58:37
TRACK 03 AUDIO
TITLE “Let go”
PERFORMER “Red”
ISRC USA5W0600045
INDEX 01 04:32:65
TRACK 04 AUDIO
TITLE “Already over”
PERFORMER “Red”
ISRC USA5W0600046
INDEX 01 09:48:46
TRACK 05 AUDIO
TITLE “Lost”
PERFORMER “Red”
ISRC USA5W0600047
INDEX 01 14:13:42
TRACK 06 AUDIO
TITLE “Pieces”
PERFORMER “Red”
ISRC USA5W0600048
INDEX 01 19:28:66
TRACK 07 AUDIO
TITLE “Break me down”
PERFORMER “Red”
ISRC USA5W0600049
INDEX 01 25:27:19
TRACK 08 AUDIO
TITLE “Wasting time”
PERFORMER “Red”
ISRC USA5W0600050
INDEX 01 29:42:16
TRACK 09 AUDIO
TITLE “Gave it all away”
PERFORMER “Red”
ISRC USA5W0600051
INDEX 01 33:03:34
TRACK 10 AUDIO
TITLE “Hide”
PERFORMER “Red”
ISRC USA5W0600052
INDEX 01 36:16:71
TRACK 11 AUDIO
TITLE “Already over, part. 2”
PERFORMER “Red”
ISRC USA5W0600053
INDEX 01 41:45:11
TRACK 12 AUDIO
TITLE “Lost (Acoustic)”
PERFORMER “Red”
ISRC USA5W0700348
INDEX 00 46:55:22
INDEX 01 46:56:12


Leave a Reply

Your email address will not be published. Required fields are marked *

Enter the text from the image below
 

This site uses Akismet to reduce spam. Learn how your comment data is processed.