Red – End Of Silence – 10th Anniversary Edition




Artist: Red
Year: 2006/2016
Genre: Rock
Notes: Discogs
Add. Notes:
Cover incl.: No
Encoder: FLAC
Bitrate: ~1000 kBit/s (44.1 kHz/16 Bit/s)
Log & Cue incl.: Yes
Size: 512,57 MB
Password: “slam” (without ” “)


All Downloads/Hosters are compatible

Download 1
NitroFlare.com
KatFile.com
Turbobit.net
Rapidgator.net
UploadRar.com
Download 2
NitroFlare.com
KatFile.com
Turbobit.net
Rapidgator.net
UploadRar.com

Tracklist:

1. Intro (End of Silence)
2. Breathe Into Me
3. Let Go
4. Already Over
5. Lost
6. Pieces
7. Break Me Down
8. Wasting Time
9. Gave It All Away
10. Hide
11. Already Over Pt. 2
12. Breathe Into Me (Remix Acústica)
13. Already Over (Acoustic Version) 
14. Lost (Acoustic Version) 
15. Hide (Acoustic Version)
16. If I Break
17. Circles (Working Demo - Instrumental)

EAC-Log, CUE-Sheed & NFO:

Click to open spoiler
Exact Audio Copy V1.3 from 2. September 2016

Отчёт EAC об извлечении, выполненном 27. января 2019, 13:23

Red / End Of Silence

Дисковод: ASUS BW-12B1ST Adapter: 1 ID: 0

Режим чтения : Достоверность
Использование точного потока : Да
Отключение кэша аудио : Да
Использование указателей C2 : Нет

Коррекция смещения при чтении : 6
Способность читать области Lead-in и Lead-out : Нет
Заполнение пропущенных сэмплов тишиной : Да
Удаление блоков с тишиной в начале и конце : Нет
При вычислениях CRC использовались нулевые сэмплы : Да
Интерфейс : Встроенный Win32-интерфейс для Win NT/2000

Выходной формат : Внутренние WAV-операции
Формат сэмплов : 44.100 Гц; 16 бит; стерео

TOC извлечённого CD

Трек | Старт | Длительность | Начальный сектор | Конечный сектор
———————————————————————
1 | 0:00.00 | 0:57.42 | 0 | 4316
2 | 0:57.42 | 3:33.67 | 4317 | 20358
3 | 4:31.34 | 5:15.42 | 20359 | 44025
4 | 9:47.01 | 4:22.50 | 44026 | 63725
5 | 14:09.51 | 5:16.63 | 63726 | 87488
6 | 19:26.39 | 5:58.41 | 87489 | 114379
7 | 25:25.05 | 4:14.45 | 114380 | 133474
8 | 29:39.50 | 3:21.06 | 133475 | 148555
9 | 33:00.56 | 3:13.35 | 148556 | 163065
10 | 36:14.16 | 5:28.17 | 163066 | 187682
11 | 41:42.33 | 5:14.31 | 187683 | 211263
12 | 46:56.64 | 3:54.14 | 211264 | 228827
13 | 50:51.03 | 4:00.41 | 228828 | 246868
14 | 54:51.44 | 4:29.68 | 246869 | 267111
15 | 59:21.37 | 4:08.03 | 267112 | 285714
16 | 63:29.40 | 4:39.03 | 285715 | 306642
17 | 68:08.43 | 7:04.31 | 306643 | 338473

Характеристики диапазона извлечения и сообщения об ошибках

Выбранный диапазон

Имя файла D:\EAC\Evgenius1986\Red – 2006 – End Of Silence (10th Anniversary Edition) (Essential Records – 83061-1056-2)\Red – 2016 – End Of Silence.wav

Пиковый уровень 100.0 %
Скорость извлечения 3.9 X
Качество диапазона 100.0 %
CRC теста 06E5F9E7
CRC копии 06E5F9E7
Копирование… OK

Ошибок не произошло

AccurateRip: сводка

Трек 1 : извлечено точно (доверие 5) [FB8FD683] (AR v2)
Трек 2 : извлечено точно (доверие 5) [61F63C36] (AR v2)
Трек 3 : извлечено точно (доверие 5) [C6375CFD] (AR v2)
Трек 4 : извлечено точно (доверие 5) [5D6F2025] (AR v2)
Трек 5 : извлечено точно (доверие 5) [39E66D61] (AR v2)
Трек 6 : извлечено точно (доверие 5) [A4851057] (AR v2)
Трек 7 : извлечено точно (доверие 5) [29A81B9E] (AR v2)
Трек 8 : извлечено точно (доверие 5) [BCB1D97C] (AR v2)
Трек 9 : извлечено точно (доверие 5) [603A5D15] (AR v2)
Трек 10 : извлечено точно (доверие 5) [466070B8] (AR v2)
Трек 11 : извлечено точно (доверие 5) [E7D4E413] (AR v2)
Трек 12 : извлечено точно (доверие 5) [4668E8AF] (AR v2)
Трек 13 : извлечено точно (доверие 5) [83D7129E] (AR v2)
Трек 14 : извлечено точно (доверие 5) [51436BC1] (AR v2)
Трек 15 : извлечено точно (доверие 5) [9D659B97] (AR v2)
Трек 16 : извлечено точно (доверие 5) [8F822FE8] (AR v2)
Трек 17 : извлечено точно (доверие 5) [78F2CDBD] (AR v2)

Все треки извлечены точно

Конец отчёта

—- CUETools DB Plugin V2.1.6

[CTDB TOCID: JC4DaOk6uNvo_.98qPd6oOXTzYk-] found
Submit result: JC4DaOk6uNvo_.98qPd6oOXTzYk- has been confirmed
Track | CTDB Status
1 | (26/26) Accurately ripped
2 | (26/26) Accurately ripped
3 | (26/26) Accurately ripped
4 | (26/26) Accurately ripped
5 | (26/26) Accurately ripped
6 | (26/26) Accurately ripped
7 | (26/26) Accurately ripped
8 | (26/26) Accurately ripped
9 | (26/26) Accurately ripped
10 | (26/26) Accurately ripped
11 | (26/26) Accurately ripped
12 | (26/26) Accurately ripped
13 | (26/26) Accurately ripped
14 | (26/26) Accurately ripped
15 | (26/26) Accurately ripped
16 | (26/26) Accurately ripped
17 | (25/26) Accurately ripped

==== Контрольная сумма отчёта 9592B40F1E03B38DADA30E535944CC2808397D8960C226B867D90B216247C691 ====

REM GENRE Alternative
REM DATE 2006
REM DISCID F911A011
REM COMMENT “ExactAudioCopy v1.3”
CATALOG 0083061105624
PERFORMER “Red”
TITLE “End Of Silence”
REM COMPOSER “”
FILE “Red – 2016 – End Of Silence.flac” WAVE
TRACK 01 AUDIO
TITLE “Intro (End Of Silence)”
PERFORMER “Red”
REM COMPOSER “”
ISRC USA5W1600070
INDEX 01 00:00:00
TRACK 02 AUDIO
TITLE “Breathe Into Me”
PERFORMER “Red”
REM COMPOSER “”
ISRC USA5W1600071
INDEX 01 00:57:42
TRACK 03 AUDIO
TITLE “Let Go”
PERFORMER “Red”
REM COMPOSER “”
ISRC USA5W1600072
INDEX 01 04:31:34
TRACK 04 AUDIO
TITLE “Already Over”
PERFORMER “Red”
REM COMPOSER “”
ISRC USA5W1600073
INDEX 01 09:47:01
TRACK 05 AUDIO
TITLE “Lost”
PERFORMER “Red”
REM COMPOSER “”
ISRC USA5W1600074
INDEX 01 14:09:51
TRACK 06 AUDIO
TITLE “Pieces”
PERFORMER “Red”
REM COMPOSER “”
ISRC USA5W1600075
INDEX 01 19:26:39
TRACK 07 AUDIO
TITLE “Break Me Down”
PERFORMER “Red”
REM COMPOSER “”
ISRC USA5W1600076
INDEX 01 25:25:05
TRACK 08 AUDIO
TITLE “Wasting Time”
PERFORMER “Red”
REM COMPOSER “”
ISRC USA5W1600077
INDEX 01 29:39:50
TRACK 09 AUDIO
TITLE “Gave It All Away”
PERFORMER “Red”
REM COMPOSER “”
ISRC USA5W1600078
INDEX 01 33:00:56
TRACK 10 AUDIO
TITLE “Hide”
PERFORMER “Red”
REM COMPOSER “”
ISRC USA5W1600079
INDEX 01 36:14:16
TRACK 11 AUDIO
TITLE “Already Over, Part 2”
PERFORMER “Red”
REM COMPOSER “”
ISRC USA5W1600080
INDEX 01 41:42:33
TRACK 12 AUDIO
TITLE “Breathe Into Me (Remix Acustica)”
PERFORMER “Red”
REM COMPOSER “”
ISRC USA5W1600081
INDEX 00 46:54:72
INDEX 01 46:56:64
TRACK 13 AUDIO
TITLE “Already Over (Acoustic Version)”
PERFORMER “Red”
REM COMPOSER “”
ISRC USA5W1600082
INDEX 01 50:51:03
TRACK 14 AUDIO
TITLE “Lost (Acoustic Version)”
PERFORMER “Red”
REM COMPOSER “”
ISRC USA5W1600083
INDEX 01 54:51:44
TRACK 15 AUDIO
TITLE “Hide (Acoustic Version)”
PERFORMER “Red”
REM COMPOSER “”
ISRC USA5W1600084
INDEX 01 59:21:37
TRACK 16 AUDIO
TITLE “If I Break”
PERFORMER “Red”
REM COMPOSER “”
ISRC USA5W1600085
INDEX 01 63:29:40
TRACK 17 AUDIO
TITLE “Circles (Working Demo – Instrumental)”
PERFORMER “Red”
REM COMPOSER “”
ISRC USA5W1600086
INDEX 01 68:08:43


Leave a Reply

Your email address will not be published. Required fields are marked *

Enter the text from the image below
 

This site uses Akismet to reduce spam. Learn how your comment data is processed.