Razzia – Relativ Sicher Am Strand




Artist: Razzia
Year: 2004
Genre: Punk
Notes: Discogs
Add. Notes:
Cover incl.: Yes
Encoder: FLAC
Bitrate: ~1100 kBit/s (44.1 kHz/16 Bit/s)
Log & Cue incl.: Yes
Size: 483,58 MB
Password: “slam” (without ” “)


All Downloads/Hosters are compatible

Download 1
Turbobit.net
Rapidgator.net
KatFile.com
UploadRar.com
Download 2
Turbobit.net
Rapidgator.net
KatFile.com
UploadRar.com
Download 3
Turbobit.net
Rapidgator.net
KatFile.com
UploadRar.com

Tracklist:

1 - Relativ Sicher Am Strand - 3:38
2 - Laufrad - 3:30
3 - Februar 62 - 3:33
4 - Sommer - 3:14
5 - Licht Am Horizont - 3:50
6 - Vorstadt Pur - 3:20
7 - Hilflose Kreaturen - 2:03
8 - Am Fluss - 4:18
9 - Keine Lust - 2:22
10 - Intermongol - 4:17
11 - Can't Help Falling In Love - 3:12
12 - Danke - 3:24
13 - Wenn Der Vorhang Fällt - 3:50
14 - Schönes Land - 3:55
15 - Mc War - 2:23
16 - Eisbär - 4:51

EAC-Log, CUE-Sheed & NFO:

Click to open spoiler
Exact Audio Copy V1.0 beta 3 from 29. August 2011

EAC extraction logfile from 29. January 2013, 17:16

RAZZIA / Relativ sicher am Strand

Used drive : Optiarc DVD RW AD-5170A Adapter: 0 ID: 0

Read mode : Secure
Utilize accurate stream : Yes
Defeat audio cache : Yes
Make use of C2 pointers : No

Read offset correction : 48
Overread into Lead-In and Lead-Out : No
Fill up missing offset samples with silence : Yes
Delete leading and trailing silent blocks : No
Null samples used in CRC calculations : Yes
Used interface : Native Win32 interface for Win NT & 2000

Used output format : User Defined Encoder
Selected bitrate : 128 kBit/s
Quality : High
Add ID3 tag : No
Command line compressor : C:\Program Files\Exact Audio Copy\Flac\flac.exe
Additional command line options : -V -8 -T “Date=%year%” -T “Genre=%genre%” %source%

TOC of the extracted CD

Track | Start | Length | Start sector | End sector
———————————————————
1 | 0:00.00 | 3:38.47 | 0 | 16396
2 | 3:38.47 | 3:30.45 | 16397 | 32191
3 | 7:09.17 | 3:33.38 | 32192 | 48204
4 | 10:42.55 | 3:14.57 | 48205 | 62811
5 | 13:57.37 | 3:50.29 | 62812 | 80090
6 | 17:47.66 | 3:20.38 | 80091 | 95128
7 | 21:08.29 | 2:03.62 | 95129 | 104415
8 | 23:12.16 | 4:18.34 | 104416 | 123799
9 | 27:30.50 | 2:22.66 | 123800 | 134515
10 | 29:53.41 | 4:17.19 | 134516 | 153809
11 | 34:10.60 | 3:12.72 | 153810 | 168281
12 | 37:23.57 | 3:24.00 | 168282 | 183581
13 | 40:47.57 | 3:50.66 | 183582 | 200897
14 | 44:38.48 | 3:55.00 | 200898 | 218522
15 | 48:33.48 | 2:23.22 | 218523 | 229269
16 | 50:56.70 | 4:51.29 | 229270 | 251123

Range status and errors

Selected range

Filename C:\Documents and Settings\Пользователь\Рабочий стол\впортякнарт ьмри\RAZZIA – Relativ sicher am Strand.wav

Peak level 100.0 %
Extraction speed 1.7 X
Range quality 99.9 %
Test CRC BE164237
Copy CRC BE164237
Copy OK

No errors occurred

AccurateRip summary

Track 1 not present in database
Track 2 not present in database
Track 3 not present in database
Track 4 not present in database
Track 5 not present in database
Track 6 not present in database
Track 7 not present in database
Track 8 not present in database
Track 9 not present in database
Track 10 not present in database
Track 11 not present in database
Track 12 not present in database
Track 13 not present in database
Track 14 not present in database
Track 15 not present in database
Track 16 not present in database

None of the tracks are present in the AccurateRip database

End of status report

==== Log checksum BF77B6AD260A225F33D678EF121B2729E1A3454C7320893876D795E1930D3063 ====

REM DATE 2004
REM DISCID D90D1410
REM COMMENT “ExactAudioCopy v1.0b3”
PERFORMER “RAZZIA”
TITLE “Relativ sicher am Strand”
FILE “RAZZIA – Relativ sicher am Strand.FLAC” WAVE
TRACK 01 AUDIO
TITLE “Relativ sicher am Strand”
PERFORMER “RAZZIA”
ISRC 000000000000
INDEX 01 00:00:00
TRACK 02 AUDIO
TITLE “Laufrad”
PERFORMER “RAZZIA”
ISRC 000000000000
INDEX 01 03:38:47
TRACK 03 AUDIO
TITLE “Feb. 62”
PERFORMER “RAZZIA”
ISRC 000000000000
INDEX 01 07:09:17
TRACK 04 AUDIO
TITLE “Sommer”
PERFORMER “RAZZIA”
ISRC 000000000000
INDEX 01 10:42:55
TRACK 05 AUDIO
TITLE “Licht am Horizont”
PERFORMER “RAZZIA”
ISRC 000000000000
INDEX 01 13:57:37
TRACK 06 AUDIO
TITLE “Vorstadt Pur”
PERFORMER “RAZZIA”
ISRC 000000000000
INDEX 01 17:47:66
TRACK 07 AUDIO
TITLE “Hilflose Kreaturen”
PERFORMER “RAZZIA”
ISRC 000000000000
INDEX 01 21:08:29
TRACK 08 AUDIO
TITLE “Am Fluss”
PERFORMER “RAZZIA”
ISRC 000000000000
INDEX 01 23:12:16
TRACK 09 AUDIO
TITLE “Keine Lust”
PERFORMER “RAZZIA”
ISRC 000000000000
INDEX 01 27:30:50
TRACK 10 AUDIO
TITLE “Intermongol”
PERFORMER “RAZZIA”
ISRC 000000000000
INDEX 01 29:53:41
TRACK 11 AUDIO
TITLE “Can’t help falling in love”
PERFORMER “RAZZIA”
ISRC 000000000000
INDEX 01 34:10:60
TRACK 12 AUDIO
TITLE “Danke”
PERFORMER “RAZZIA”
ISRC 000000000000
INDEX 01 37:23:57
TRACK 13 AUDIO
TITLE “Wenn der Vorhang fallt”
PERFORMER “RAZZIA”
ISRC 000000000000
INDEX 01 40:47:57
TRACK 14 AUDIO
TITLE “Schones Land”
PERFORMER “RAZZIA”
ISRC 000000000000
INDEX 01 44:38:48
TRACK 15 AUDIO
TITLE “Mc War”
PERFORMER “RAZZIA”
ISRC 000000000000
INDEX 01 48:33:48
TRACK 16 AUDIO
TITLE “Eisbar”
PERFORMER “RAZZIA”
ISRC 000000000000
INDEX 01 50:56:70


Leave a Reply

Your email address will not be published. Required fields are marked *

This site uses Akismet to reduce spam. Learn how your comment data is processed.