Random Hand – Inhale Exhale




Artist: Random Hand
Year: 2008
Genre: Punk
Notes: Discogs
Add. Notes:
Cover incl.: Yes
Encoder: FLAC
Bitrate: ~1000 kBit/s (44.1 kHz/16 Bit/s)
Log & Cue incl.: Yes
Size: 333,83 MB
Password: “slam” (without ” “)


All Downloads/Hosters are compatible

Download 1
Turbobit.net
Rapidgator.net
KatFile.com
UploadRar.com
Download 2
Turbobit.net
Rapidgator.net
KatFile.com
UploadRar.com
Download 3
Turbobit.net
Rapidgator.net
KatFile.com
UploadRar.com

Tracklist:

1. I, Human 	
2. The Right Reasons 	
3. Anger Management 	
4. British 	
5. Roots In The Crowd 	
6. Devil's Little Guinea Pig 	
7. "In" 	
8. Mass Producing Monsters 	
9. For Roni 	
10. A Spider In The Silk 	
11. The Eyeballs Of War 	
12. What It Takes

EAC-Log, CUE-Sheed & NFO:

Click to open spoiler
Exact Audio Copy V0.99 prebeta 4 from 23. January 2008

EAC extraction logfile from 30. March 2010, 15:28

Random Hand / Inhale/Exhale

Used drive : PIONEER DVD-RW DVR-216D Adapter: 2 ID: 0

Read mode : Secure
Utilize accurate stream : Yes
Defeat audio cache : Yes
Make use of C2 pointers : No

Read offset correction : 96
Overread into Lead-In and Lead-Out : No
Fill up missing offset samples with silence : Yes
Delete leading and trailing silent blocks : No
Null samples used in CRC calculations : Yes
Used interface : Native Win32 interface for Win NT & 2000
Gap handling : Appended to previous track

Used output format : User Defined Encoder
Selected bitrate : 192 kBit/s
Quality : High
Add ID3 tag : No
Command line compressor : C:\Program Files\Exact Audio Copy\Flac\flac.exe
Additional command line options : -8 -A tukey(0.25) -A gauss(0.1875) -b 4096 -V -T “artist=%a” -T “title=%t” -T “album=%g” -T “date=%y” -T “tracknumber=%n” -T “genre=%m” %s –sector-align

TOC of the extracted CD

Track | Start | Length | Start sector | End sector
———————————————————
1 | 0:00.00 | 3:28.68 | 0 | 15667
2 | 3:28.68 | 3:31.01 | 15668 | 31493
3 | 6:59.69 | 4:04.15 | 31494 | 49808
4 | 11:04.09 | 3:59.05 | 49809 | 67738
5 | 15:03.14 | 2:54.45 | 67739 | 80833
6 | 17:57.59 | 4:06.37 | 80834 | 99320
7 | 22:04.21 | 2:57.74 | 99321 | 112669
8 | 25:02.20 | 2:54.13 | 112670 | 125732
9 | 27:56.33 | 3:32.42 | 125733 | 141674
10 | 31:29.00 | 3:30.67 | 141675 | 157491
11 | 34:59.67 | 4:58.54 | 157492 | 179895
12 | 39:58.46 | 4:42.17 | 179896 | 201062

Track 1

Filename T:\Shared\Music\My Rips\Random Hand – Inhale,Exhale [2009 FLAC]\01 – Random Hand – I Human.wav

Pre-gap length 0:00:02.00

Peak level 98.8 %
Track quality 100.0 %
Test CRC BA56AC05
Copy CRC BA56AC05
Cannot be verified as accurate (confidence 1) [69DD20DD], AccurateRip returned [51E94BBD]
Copy OK

Track 2

Filename T:\Shared\Music\My Rips\Random Hand – Inhale,Exhale [2009 FLAC]\02 – Random Hand – The Right Reasons.wav

Peak level 98.8 %
Track quality 100.0 %
Test CRC D4BA8682
Copy CRC D4BA8682
Cannot be verified as accurate (confidence 1) [87B68A1B], AccurateRip returned [19FFFFBA]
Copy OK

Track 3

Filename T:\Shared\Music\My Rips\Random Hand – Inhale,Exhale [2009 FLAC]\03 – Random Hand – Anger Management.wav

Peak level 98.8 %
Track quality 100.0 %
Test CRC 72F91CCF
Copy CRC 72F91CCF
Cannot be verified as accurate (confidence 1) [B98B3B34], AccurateRip returned [90D3607C]
Copy OK

Track 4

Filename T:\Shared\Music\My Rips\Random Hand – Inhale,Exhale [2009 FLAC]\04 – Random Hand – British.wav

Peak level 98.8 %
Track quality 99.9 %
Test CRC 024FCD13
Copy CRC 024FCD13
Cannot be verified as accurate (confidence 1) [3D309011], AccurateRip returned [8C1E9E1C]
Copy OK

Track 5

Filename T:\Shared\Music\My Rips\Random Hand – Inhale,Exhale [2009 FLAC]\05 – Random Hand – Roots In The Crowd.wav

Peak level 98.8 %
Track quality 100.0 %
Test CRC F09ACB90
Copy CRC F09ACB90
Cannot be verified as accurate (confidence 1) [0B232819], AccurateRip returned [ABA8AB96]
Copy OK

Track 6

Filename T:\Shared\Music\My Rips\Random Hand – Inhale,Exhale [2009 FLAC]\06 – Random Hand – Devil’s Little Guinea Pig.wav

Peak level 98.9 %
Track quality 100.0 %
Test CRC 4680D24E
Copy CRC 4680D24E
Cannot be verified as accurate (confidence 1) [20486684], AccurateRip returned [6DB0A8F6]
Copy OK

Track 7

Filename T:\Shared\Music\My Rips\Random Hand – Inhale,Exhale [2009 FLAC]\07 – Random Hand – In.wav

Peak level 98.8 %
Track quality 99.9 %
Test CRC 072E57CC
Copy CRC 072E57CC
Cannot be verified as accurate (confidence 1) [F1B6C5CF], AccurateRip returned [A20EA548]
Copy OK

Track 8

Filename T:\Shared\Music\My Rips\Random Hand – Inhale,Exhale [2009 FLAC]\08 – Random Hand – Mass Producing Monsters.wav

Peak level 98.8 %
Track quality 100.0 %
Test CRC 7AD173DA
Copy CRC 7AD173DA
Cannot be verified as accurate (confidence 1) [B6C0D711], AccurateRip returned [C4E805E9]
Copy OK

Track 9

Filename T:\Shared\Music\My Rips\Random Hand – Inhale,Exhale [2009 FLAC]\09 – Random Hand – For Roni.wav

Peak level 98.8 %
Track quality 100.0 %
Test CRC 0C50D425
Copy CRC 0C50D425
Cannot be verified as accurate (confidence 1) [C3D99799], AccurateRip returned [755221D1]
Copy OK

Track 10

Filename T:\Shared\Music\My Rips\Random Hand – Inhale,Exhale [2009 FLAC]\10 – Random Hand – A Spider In The Sink.wav

Peak level 98.8 %
Track quality 100.0 %
Test CRC 063A484A
Copy CRC 063A484A
Cannot be verified as accurate (confidence 1) [535D9E53], AccurateRip returned [4F7539A0]
Copy OK

Track 11

Filename T:\Shared\Music\My Rips\Random Hand – Inhale,Exhale [2009 FLAC]\11 – Random Hand – The Eyeballs Of War.wav

Peak level 98.8 %
Track quality 100.0 %
Test CRC EE5801F3
Copy CRC EE5801F3
Cannot be verified as accurate (confidence 1) [382A0712], AccurateRip returned [13626E80]
Copy OK

Track 12

Filename T:\Shared\Music\My Rips\Random Hand – Inhale,Exhale [2009 FLAC]\12 – Random Hand – What It Takes.wav

Peak level 98.8 %
Track quality 100.0 %
Test CRC 74CD3429
Copy CRC 74CD3429
Cannot be verified as accurate (confidence 1) [F2E214C4], AccurateRip returned [6F5BE70F]
Copy OK

No tracks could be verified as accurate
You may have a different pressing from the one(s) in the database

No errors occurred

End of status report

REM GENRE Punk
REM DATE 2009
REM DISCID 860A780C
REM COMMENT “ExactAudioCopy v0.99pb4”
PERFORMER “Random Hand”
TITLE “Inhale/Exhale”
FILE “01 – Random Hand – I Human.wav” WAVE
TRACK 01 AUDIO
TITLE “I Human”
PERFORMER “Random Hand”
INDEX 01 00:00:00
FILE “02 – Random Hand – The Right Reasons.wav” WAVE
TRACK 02 AUDIO
TITLE “The Right Reasons”
PERFORMER “Random Hand”
INDEX 01 00:00:00
FILE “03 – Random Hand – Anger Management.wav” WAVE
TRACK 03 AUDIO
TITLE “Anger Management”
PERFORMER “Random Hand”
INDEX 01 00:00:00
FILE “04 – Random Hand – British.wav” WAVE
TRACK 04 AUDIO
TITLE “British”
PERFORMER “Random Hand”
INDEX 01 00:00:00
FILE “05 – Random Hand – Roots In The Crowd.wav” WAVE
TRACK 05 AUDIO
TITLE “Roots In The Crowd”
PERFORMER “Random Hand”
INDEX 01 00:00:00
FILE “06 – Random Hand – Devil’s Little Guinea Pig.wav” WAVE
TRACK 06 AUDIO
TITLE “Devil’s Little Guinea Pig”
PERFORMER “Random Hand”
INDEX 01 00:00:00
FILE “07 – Random Hand – In.wav” WAVE
TRACK 07 AUDIO
TITLE “In”
PERFORMER “Random Hand”
INDEX 01 00:00:00
FILE “08 – Random Hand – Mass Producing Monsters.wav” WAVE
TRACK 08 AUDIO
TITLE “Mass Producing Monsters”
PERFORMER “Random Hand”
INDEX 01 00:00:00
FILE “09 – Random Hand – For Roni.wav” WAVE
TRACK 09 AUDIO
TITLE “For Roni”
PERFORMER “Random Hand”
INDEX 01 00:00:00
FILE “10 – Random Hand – A Spider In The Sink.wav” WAVE
TRACK 10 AUDIO
TITLE “A Spider In The Sink”
PERFORMER “Random Hand”
INDEX 01 00:00:00
FILE “11 – Random Hand – The Eyeballs Of War.wav” WAVE
TRACK 11 AUDIO
TITLE “The Eyeballs Of War”
PERFORMER “Random Hand”
INDEX 01 00:00:00
FILE “12 – Random Hand – What It Takes.wav” WAVE
TRACK 12 AUDIO
TITLE “What It Takes”
PERFORMER “Random Hand”
INDEX 01 00:00:00


Leave a Reply

Your email address will not be published. Required fields are marked *

This site uses Akismet to reduce spam. Learn how your comment data is processed.