Random Hand – Another Change Of Plan




Artist: Random Hand
Year: 2010
Genre: Ska
Notes: Discogs
Add. Notes:
Cover incl.: Yes
Encoder: FLAC
Bitrate: ~1000 kBit/s (44.1 kHz/16 Bit/s)
Log & Cue incl.: Yes
Size: 444,05 MB
Password: “slam” (without ” “)


All Downloads/Hosters are compatible

Download 1
Turbobit.net
Rapidgator.net
KatFile.com
UploadRar.com
Download 2
Turbobit.net
Rapidgator.net
KatFile.com
UploadRar.com

Tracklist:

1. Play Some Ska. 
2. Scum Triumphant. 
3. Milk. 
4. Snakes And Ladders. 
5. Dynamo Penis Death Bastard. 
6. Anthropology. 
7. The Tenant Of Rotherwood Hall. 
8. Answers. 
9. Danger Makes Enemies. 
10. The Wisest Man. 
11. Tear Down. 
12. Mr. Bibs Wakes Up. 
13. The Story. 
14. Morally Blind. 
15. Fury Fix

EAC-Log, CUE-Sheed & NFO:

Click to open spoiler
Exact Audio Copy V0.99 prebeta 5 from 4. May 2009

EAC extraction logfile from 18. June 2010, 19:24

Random Hand / Another Change Of Plan

Used drive : HL-DT-STDVDRAM GH22LS50 Adapter: 6 ID: 0

Read mode : Secure
Utilize accurate stream : Yes
Defeat audio cache : Yes
Make use of C2 pointers : No

Read offset correction : 667
Overread into Lead-In and Lead-Out : No
Fill up missing offset samples with silence : Yes
Delete leading and trailing silent blocks : No
Null samples used in CRC calculations : Yes
Used interface : Native Win32 interface for Win NT & 2000
Gap handling : Appended to previous track

Used output format : User Defined Encoder
Selected bitrate : 320 kBit/s
Quality : High
Add ID3 tag : No
Command line compressor : C:\Program Files\Exact Audio Copy\Flac\flac.exe
Additional command line options : -V -8 -T “artist=%a” -T “title=%t” -T “album=%g” -T “date=%y” -T “tracknumber=%n” -T “genre=%m” %s

TOC of the extracted CD

Track | Start | Length | Start sector | End sector
———————————————————
1 | 0:00.00 | 3:16.25 | 0 | 14724
2 | 3:16.25 | 4:08.56 | 14725 | 33380
3 | 7:25.06 | 2:47.26 | 33381 | 45931
4 | 10:12.32 | 3:05.35 | 45932 | 59841
5 | 13:17.67 | 4:20.35 | 59842 | 79376
6 | 17:38.27 | 3:50.41 | 79377 | 96667
7 | 21:28.68 | 4:37.24 | 96668 | 117466
8 | 26:06.17 | 3:50.65 | 117467 | 134781
9 | 29:57.07 | 6:15.74 | 134782 | 162980
10 | 36:13.06 | 4:12.30 | 162981 | 181910
11 | 40:25.36 | 3:48.47 | 181911 | 199057
12 | 44:14.08 | 3:14.41 | 199058 | 213648
13 | 47:28.49 | 4:09.66 | 213649 | 232389
14 | 51:38.40 | 2:36.14 | 232390 | 244103
15 | 54:14.54 | 2:56.48 | 244104 | 257351

Track 1

Filename E:\Music\Random Hand\Random Hand – Another Change Of Plan (FLAC)\01 – Play Some Ska.wav

Pre-gap length 0:00:02.00

Peak level 98.9 %
Track quality 100.0 %
Test CRC FE8B0F08
Copy CRC FE8B0F08
Copy OK

Track 2

Filename E:\Music\Random Hand\Random Hand – Another Change Of Plan (FLAC)\02 – Scum Triumphant.wav

Peak level 99.1 %
Track quality 100.0 %
Test CRC 3663D707
Copy CRC 3663D707
Copy OK

Track 3

Filename E:\Music\Random Hand\Random Hand – Another Change Of Plan (FLAC)\03 – Milk.wav

Peak level 100.0 %
Track quality 99.9 %
Test CRC 128C1AE0
Copy CRC 128C1AE0
Copy OK

Track 4

Filename E:\Music\Random Hand\Random Hand – Another Change Of Plan (FLAC)\04 – Snakes And Ladders.wav

Peak level 98.9 %
Track quality 100.0 %
Test CRC 7B52DD49
Copy CRC 7B52DD49
Copy OK

Track 5

Filename E:\Music\Random Hand\Random Hand – Another Change Of Plan (FLAC)\05 – Dynamo Penis Death Bastard.wav

Peak level 99.2 %
Track quality 100.0 %
Test CRC 538B2D87
Copy CRC 538B2D87
Copy OK

Track 6

Filename E:\Music\Random Hand\Random Hand – Another Change Of Plan (FLAC)\06 – Anthropology.wav

Peak level 100.0 %
Track quality 100.0 %
Test CRC 2CBD66E8
Copy CRC 2CBD66E8
Copy OK

Track 7

Filename E:\Music\Random Hand\Random Hand – Another Change Of Plan (FLAC)\07 – The Tenant Of Rotherwood Hall.wav

Peak level 100.0 %
Track quality 100.0 %
Test CRC 07EC9997
Copy CRC 07EC9997
Copy OK

Track 8

Filename E:\Music\Random Hand\Random Hand – Another Change Of Plan (FLAC)\08 – Answers.wav

Peak level 100.0 %
Track quality 100.0 %
Test CRC 88F804B1
Copy CRC 88F804B1
Copy OK

Track 9

Filename E:\Music\Random Hand\Random Hand – Another Change Of Plan (FLAC)\09 – Danger Makes Enemies.wav

Peak level 98.9 %
Track quality 100.0 %
Test CRC B998703F
Copy CRC B998703F
Copy OK

Track 10

Filename E:\Music\Random Hand\Random Hand – Another Change Of Plan (FLAC)\10 – The Wisest Man.wav

Peak level 98.9 %
Track quality 100.0 %
Test CRC 4D871B9C
Copy CRC 4D871B9C
Copy OK

Track 11

Filename E:\Music\Random Hand\Random Hand – Another Change Of Plan (FLAC)\11 – Tear Down.wav

Pre-gap length 0:00:07.65

Peak level 98.9 %
Track quality 100.0 %
Test CRC 39089C5C
Copy CRC 39089C5C
Copy OK

Track 12

Filename E:\Music\Random Hand\Random Hand – Another Change Of Plan (FLAC)\12 – Mr Bibs Wakes Up.wav

Peak level 98.9 %
Track quality 100.0 %
Test CRC 35C58DF5
Copy CRC 35C58DF5
Copy OK

Track 13

Filename E:\Music\Random Hand\Random Hand – Another Change Of Plan (FLAC)\13 – The Story.wav

Peak level 98.9 %
Track quality 100.0 %
Test CRC A5FF2B1B
Copy CRC A5FF2B1B
Copy OK

Track 14

Filename E:\Music\Random Hand\Random Hand – Another Change Of Plan (FLAC)\14 – Morally Blind.wav

Peak level 98.9 %
Track quality 100.0 %
Test CRC D3B3F7F7
Copy CRC D3B3F7F7
Copy OK

Track 15

Filename E:\Music\Random Hand\Random Hand – Another Change Of Plan (FLAC)\15 – Fury Fix.wav

Peak level 98.9 %
Track quality 100.0 %
Test CRC 0D7028F3
Copy CRC 0D7028F3
Copy OK

No errors occurred

End of status report

REM GENRE “Ska Punk”
REM DATE 2010
REM DISCID DC0D670F
REM COMMENT “ExactAudioCopy v0.99pb5”
FILE “01 – Play Some Ska.wav” WAVE
TRACK 01 AUDIO
INDEX 01 00:00:00
FILE “02 – Scum Triumphant.wav” WAVE
TRACK 02 AUDIO
INDEX 01 00:00:00
FILE “03 – Milk.wav” WAVE
TRACK 03 AUDIO
INDEX 01 00:00:00
FILE “04 – Snakes And Ladders.wav” WAVE
TRACK 04 AUDIO
INDEX 01 00:00:00
FILE “05 – Dynamo Penis Death Bastard.wav” WAVE
TRACK 05 AUDIO
INDEX 01 00:00:00
FILE “06 – Anthropology.wav” WAVE
TRACK 06 AUDIO
INDEX 01 00:00:00
FILE “07 – The Tenant Of Rotherwood Hall.wav” WAVE
TRACK 07 AUDIO
INDEX 01 00:00:00
FILE “08 – Answers.wav” WAVE
TRACK 08 AUDIO
INDEX 01 00:00:00
FILE “09 – Danger Makes Enemies.wav” WAVE
TRACK 09 AUDIO
INDEX 01 00:00:00
FILE “10 – The Wisest Man.wav” WAVE
TRACK 10 AUDIO
INDEX 01 00:00:00
TRACK 11 AUDIO
INDEX 00 04:04:56
FILE “11 – Tear Down.wav” WAVE
INDEX 01 00:00:00
FILE “12 – Mr Bibs Wakes Up.wav” WAVE
TRACK 12 AUDIO
INDEX 01 00:00:00
FILE “13 – The Story.wav” WAVE
TRACK 13 AUDIO
INDEX 01 00:00:00
FILE “14 – Morally Blind.wav” WAVE
TRACK 14 AUDIO
INDEX 01 00:00:00
FILE “15 – Fury Fix.wav” WAVE
TRACK 15 AUDIO
INDEX 01 00:00:00


Leave a Reply

Your email address will not be published. Required fields are marked *

This site uses Akismet to reduce spam. Learn how your comment data is processed.