Rancid – Rancid




Artist: Rancid
Year: 2000
Genre: Punk
Notes: Discogs
Add. Notes:
Cover incl.: Yes
Encoder: FLAC
Bitrate: ~1100 kBit/s (44.1 kHz/16 Bit/s)
Log & Cue incl.: Yes
Size: 324,74 MB
Password: “slam” (without ” “)


All Downloads/Hosters are compatible

Download 1
Turbobit.net
Rapidgator.net
UploadByte.com
UploadEver.com
JustUpload.io
Download 2
Turbobit.net
Rapidgator.net
UploadByte.com
UploadEver.com
JustUpload.io
Download 3
Turbobit.net
Rapidgator.net
UploadByte.com
UploadEver.com
JustUpload.io

Tracklist:

1 - Don Giovanni - 0:35
2 - Disgruntled - 1:00
3 - It's Quite Alright - 1:29
4 - Let Me Go - 3:13
5 - I Am Forever - 1:03
6 - Poison - 1:17
7 - Loki - 0:47
8 - Blackhawk Down - 1:41
9 - Rwanda - 1:20
10 - Corruption - 1:27
11 - Antennas - 1:10
12 - Rattlesnake - 1:42
13 - Not To Regret - 2:16
14 - Radio Havana - 3:42
15 - Axiom - 1:40
16 - Black Derby Jacket - 2:35
17 - Meteor Of War - 1:21
18 - Dead Bodies - 1:48
19 - Rigged On A Fix - 1:16
20 - Young Al Capone - 1:52
21 - Reconciliation - 1:20
22 - GGF - 3:39

EAC-Log, CUE-Sheed & NFO:

Click to open spoiler
Exact Audio Copy V0.99 prebeta 5 from 4. May 2009

Отчёт EAC об извлечении, выполненном 22. октября 2009, 22:02

Rancid / Rancid

Дисковод: SONY DVD-ROM DDU1621 Adapter: 3 ID: 1

Режим чтения : Достоверность
Использование точного потока : Да
Отключение кэша аудио : Да
Использование указателей C2 : Нет

Коррекция смещения при чтении : 12
Способность читать области Lead-in и Lead-out : Нет
Заполнение пропущенных сэмплов тишиной : Да
Удаление блоков с тишиной в начале и конце : Нет
При вычислениях CRC использовались нулевые сэмплы : Да
Интерфейс : Установленный внешний ASPI-интерфейс

Выходной формат : Внутренние WAV-операции
Формат сэмплов : 44.100 Гц; 16 бит; стерео

TOC извлечённого CD

Трек | Старт | Длительность | Начальный сектор | Конечный сектор
———————————————————————
1 | 0:00.00 | 0:35.40 | 0 | 2664
2 | 0:35.40 | 1:00.52 | 2665 | 7216
3 | 1:36.17 | 1:29.10 | 7217 | 13901
4 | 3:05.27 | 3:13.35 | 13902 | 28411
5 | 6:18.62 | 1:03.13 | 28412 | 33149
6 | 7:22.00 | 1:17.20 | 33150 | 38944
7 | 8:39.20 | 0:47.37 | 38945 | 42506
8 | 9:26.57 | 1:41.43 | 42507 | 50124
9 | 11:08.25 | 1:20.60 | 50125 | 56184
10 | 12:29.10 | 1:27.60 | 56185 | 62769
11 | 13:56.70 | 1:11.00 | 62770 | 68094
12 | 15:07.70 | 1:42.12 | 68095 | 75756
13 | 16:50.07 | 2:16.23 | 75757 | 85979
14 | 19:06.30 | 3:42.27 | 85980 | 102656
15 | 22:48.57 | 1:40.23 | 102657 | 110179
16 | 24:29.05 | 2:35.22 | 110180 | 121826
17 | 27:04.27 | 1:21.03 | 121827 | 127904
18 | 28:25.30 | 1:49.07 | 127905 | 136086
19 | 30:14.37 | 1:15.70 | 136087 | 141781
20 | 31:30.32 | 1:52.05 | 141782 | 150186
21 | 33:22.37 | 1:20.43 | 150187 | 156229
22 | 34:43.05 | 3:36.55 | 156230 | 172484
23 | 38:19.60 | 1:19.15 | 172485 | 178424

Характеристики диапазона извлечения и сообщения об ошибках

Выбранный диапазон

Имя файла D:\Загрузки\Rancid\Rancid-Rancid 2000\Rancid – Rancid.wav

Пиковый уровень 99.8 %
Качество диапазона 100.0 %
CRC теста 07F880A1
CRC копии 07F880A1
Копирование… OK

Ошибок не произошло

AccurateRip: сводка

Трек 1 точное извлечение (доверие 1) [AC6D2791]
Трек 2 точное извлечение (доверие 1) [5D8900B0]
Трек 3 точное извлечение (доверие 1) [A6978561]
Трек 4 точное извлечение (доверие 1) [A7A53F2F]
Трек 5 точное извлечение (доверие 1) [204D8079]
Трек 6 точное извлечение (доверие 1) [9B53013C]
Трек 7 точное извлечение (доверие 1) [2BD9A991]
Трек 8 точное извлечение (доверие 1) [01C9D069]
Трек 9 точное извлечение (доверие 1) [424BBA9E]
Трек 10 точное извлечение (доверие 1) [1B0C5E7C]
Трек 11 точное извлечение (доверие 1) [E1860DF3]
Трек 12 точное извлечение (доверие 1) [1B62981E]
Трек 13 точное извлечение (доверие 1) [90CA5900]
Трек 14 точное извлечение (доверие 1) [73139BE3]
Трек 15 точное извлечение (доверие 1) [FF228A78]
Трек 16 точное извлечение (доверие 1) [D1909772]
Трек 17 точное извлечение (доверие 1) [B2DBD653]
Трек 18 точное извлечение (доверие 1) [668B8EA7]
Трек 19 точное извлечение (доверие 1) [43966BEA]
Трек 20 точное извлечение (доверие 1) [8E05AA20]
Трек 21 точное извлечение (доверие 1) [8EC2C78C]
Трек 22 точное извлечение (доверие 1) [848C75CC]
Трек 23 точное извлечение (доверие 1) [38328055]

Все треки извлечены точно

Конец отчёта

REM DISCID 26094B17
REM COMMENT “ExactAudioCopy v0.99pb5”
PERFORMER “Rancid”
TITLE “Rancid”
FILE “Rancid – Rancid.wav” WAVE
TRACK 01 AUDIO
TITLE “Don Giovanni”
PERFORMER “Rancid”
INDEX 01 00:00:00
TRACK 02 AUDIO
TITLE “Disgruntled”
PERFORMER “Rancid”
INDEX 01 00:35:40
TRACK 03 AUDIO
TITLE “It’s Quite Alright”
PERFORMER “Rancid”
INDEX 01 01:36:17
TRACK 04 AUDIO
TITLE “Let Me Go”
PERFORMER “Rancid”
INDEX 01 03:05:27
TRACK 05 AUDIO
TITLE “I Am Forever”
PERFORMER “Rancid”
INDEX 01 06:18:62
TRACK 06 AUDIO
TITLE “Poison”
PERFORMER “Rancid”
INDEX 01 07:22:00
TRACK 07 AUDIO
TITLE “Loki”
PERFORMER “Rancid”
INDEX 01 08:39:20
TRACK 08 AUDIO
TITLE “Blackhawk Down”
PERFORMER “Rancid”
INDEX 01 09:26:57
TRACK 09 AUDIO
TITLE “Rwanda”
PERFORMER “Rancid”
INDEX 01 11:08:25
TRACK 10 AUDIO
TITLE “Corruption”
PERFORMER “Rancid”
INDEX 01 12:29:10
TRACK 11 AUDIO
TITLE “Antennas”
PERFORMER “Rancid”
INDEX 01 13:56:70
TRACK 12 AUDIO
TITLE “Rattlesnake”
PERFORMER “Rancid”
INDEX 01 15:07:70
TRACK 13 AUDIO
TITLE “Not To Regret”
PERFORMER “Rancid”
INDEX 01 16:50:07
TRACK 14 AUDIO
TITLE “Radio Havana”
PERFORMER “Rancid”
INDEX 01 19:06:30
TRACK 15 AUDIO
TITLE “Axiom”
PERFORMER “Rancid”
INDEX 01 22:48:57
TRACK 16 AUDIO
TITLE “Black Derby Jacket”
PERFORMER “Rancid”
INDEX 01 24:29:05
TRACK 17 AUDIO
TITLE “Meteor Of War”
PERFORMER “Rancid”
INDEX 01 27:04:27
TRACK 18 AUDIO
TITLE “Dead Bodies”
PERFORMER “Rancid”
INDEX 01 28:25:30
TRACK 19 AUDIO
TITLE “Rigged On A Fix”
PERFORMER “Rancid”
INDEX 01 30:14:37
TRACK 20 AUDIO
TITLE “Young Al Capone”
PERFORMER “Rancid”
INDEX 01 31:30:32
TRACK 21 AUDIO
TITLE “Reconciliation”
PERFORMER “Rancid”
INDEX 01 33:22:37
TRACK 22 AUDIO
TITLE “Ggf”
PERFORMER “Rancid”
INDEX 01 34:43:05
TRACK 23 AUDIO
TITLE “Sick Sick World”
PERFORMER “Rancid”
INDEX 01 38:19:60

Leave a Reply

Your email address will not be published. Required fields are marked *

This site uses Akismet to reduce spam. Learn how your comment data is processed.