Rancid – Rancid




Artist: Rancid
Year: 1993
Genre: Punk
Notes: Discogs
Add. Notes:
Cover incl.: Yes
Encoder: FLAC
Bitrate: ~1000 kBit/s (44.1 kHz/16 Bit/s)
Log & Cue incl.: Yes
Size: 295,5 MB
Password: “slam” (without ” “)


All Downloads/Hosters are compatible

Download 1
Turbobit.net
Rapidgator.net
UploadEver.com
JustUpload.io
UsersDrive.com
Download 2
Turbobit.net
Rapidgator.net
UploadEver.com
JustUpload.io
UsersDrive.com
Download 3
Turbobit.net
Rapidgator.net
UploadEver.com
JustUpload.io
UsersDrive.com

Tracklist:

1 - Adina - 1:39
2 - Hyena - 2:54
3 - Detroit - 2:24
4 - Rats In The Hallway - 2:21
5 - Another Night - 1:52
6 - Animosity - 2:25
7 - Outta My Mind - 2:22
8 - Whirlwind - 2:15
9 - Rejected - 2:12
10 - Injury - 2:06
11 - The Bottle - 2:04
12 - Trenches - 2:03
13 - Holiday Sunrise - 1:45
14 - Unwritten Rules - 1:42
15 - Union Blood - 2:03
16 - Get Out Of My Way - 1:59

EAC-Log, CUE-Sheed & NFO:

Click to open spoiler
Exact Audio Copy V0.99 prebeta 5 from 4. May 2009

Отчёт EAC об извлечении, выполненном 22. октября 2009, 20:18

Rancid / Rancid

Дисковод: SONY DVD-ROM DDU1621 Adapter: 3 ID: 1

Режим чтения : Достоверность
Использование точного потока : Да
Отключение кэша аудио : Да
Использование указателей C2 : Нет

Коррекция смещения при чтении : 12
Способность читать области Lead-in и Lead-out : Нет
Заполнение пропущенных сэмплов тишиной : Да
Удаление блоков с тишиной в начале и конце : Нет
При вычислениях CRC использовались нулевые сэмплы : Да
Интерфейс : Установленный внешний ASPI-интерфейс

Выходной формат : Внутренние WAV-операции
Формат сэмплов : 44.100 Гц; 16 бит; стерео

TOC извлечённого CD

Трек | Старт | Длительность | Начальный сектор | Конечный сектор
———————————————————————
1 | 0:00.50 | 1:39.55 | 50 | 7529
2 | 1:40.30 | 2:54.57 | 7530 | 20636
3 | 4:35.12 | 2:24.30 | 20637 | 31466
4 | 6:59.42 | 2:21.55 | 31467 | 42096
5 | 9:21.22 | 1:52.63 | 42097 | 50559
6 | 11:14.10 | 2:25.37 | 50560 | 61471
7 | 13:39.47 | 2:22.63 | 61472 | 72184
8 | 16:02.35 | 2:15.22 | 72185 | 82331
9 | 18:17.57 | 2:12.35 | 82332 | 92266
10 | 20:30.17 | 2:06.33 | 92267 | 101749
11 | 22:36.50 | 2:04.72 | 101750 | 111121
12 | 24:41.47 | 2:03.58 | 111122 | 120404
13 | 26:45.30 | 1:45.45 | 120405 | 128324
14 | 28:31.00 | 1:42.25 | 128325 | 135999
15 | 30:13.25 | 2:03.50 | 136000 | 145274
16 | 32:17.00 | 1:59.37 | 145275 | 154236

Характеристики диапазона извлечения и сообщения об ошибках

Выбранный диапазон

Имя файла D:\Загрузки\Rancid\Rancid-Rancid 1993\Rancid – Rancid.wav

Пиковый уровень 96.1 %
Качество диапазона 99.9 %
CRC теста 42891CCF
CRC копии 42891CCF
Копирование… OK

Ошибок не произошло

AccurateRip: сводка

Трек 1 точное извлечение (доверие 5) [20956430]
Трек 2 точное извлечение (доверие 5) [C36ADE38]
Трек 3 точное извлечение (доверие 5) [4EC58A0C]
Трек 4 точное извлечение (доверие 5) [D90CD6B0]
Трек 5 точное извлечение (доверие 5) [B06C0693]
Трек 6 точное извлечение (доверие 5) [6A5657B8]
Трек 7 точное извлечение (доверие 5) [AA0DB4B2]
Трек 8 точное извлечение (доверие 5) [A3759952]
Трек 9 точное извлечение (доверие 5) [E7A2E764]
Трек 10 точное извлечение (доверие 5) [1BE25557]
Трек 11 точное извлечение (доверие 5) [14286837]
Трек 12 точное извлечение (доверие 5) [031A1271]
Трек 13 точное извлечение (доверие 5) [BE6A1354]
Трек 14 точное извлечение (доверие 5) [DAE8C000]
Трек 15 точное извлечение (доверие 5) [ED0BA5D3]
Трек 16 точное извлечение (доверие 5) [F3B84F00]

Все треки извлечены точно

Конец отчёта

REM GENRE Punk
REM DATE 1993
REM DISCID D6080810
REM COMMENT “ExactAudioCopy v0.99pb5”
PERFORMER “Rancid”
TITLE “Rancid”
FILE “Rancid – Rancid.wav” WAVE
TRACK 01 AUDIO
TITLE “Adina”
PERFORMER “Rancid”
INDEX 00 00:00:00
INDEX 01 00:00:50
TRACK 02 AUDIO
TITLE “Hyena”
PERFORMER “Rancid”
INDEX 01 01:40:30
TRACK 03 AUDIO
TITLE “Detroit”
PERFORMER “Rancid”
INDEX 01 04:35:12
TRACK 04 AUDIO
TITLE “Rats In The Hallway”
PERFORMER “Rancid”
INDEX 01 06:59:42
TRACK 05 AUDIO
TITLE “Another Night”
PERFORMER “Rancid”
INDEX 01 09:21:22
TRACK 06 AUDIO
TITLE “Animosity”
PERFORMER “Rancid”
INDEX 01 11:14:10
TRACK 07 AUDIO
TITLE “Outta My Mind”
PERFORMER “Rancid”
INDEX 01 13:39:47
TRACK 08 AUDIO
TITLE “Whirlwind”
PERFORMER “Rancid”
INDEX 01 16:02:35
TRACK 09 AUDIO
TITLE “Rejected”
PERFORMER “Rancid”
INDEX 01 18:17:57
TRACK 10 AUDIO
TITLE “Injury”
PERFORMER “Rancid”
INDEX 01 20:30:17
TRACK 11 AUDIO
TITLE “The Bottle”
PERFORMER “Rancid”
INDEX 01 22:36:50
TRACK 12 AUDIO
TITLE “Trenches”
PERFORMER “Rancid”
INDEX 01 24:41:47
TRACK 13 AUDIO
TITLE “Holiday Sunrise”
PERFORMER “Rancid”
INDEX 01 26:45:30
TRACK 14 AUDIO
TITLE “Unwritten Rules”
PERFORMER “Rancid”
INDEX 01 28:31:00
TRACK 15 AUDIO
TITLE “Situation”
PERFORMER “Rancid”
INDEX 01 30:13:25
TRACK 16 AUDIO
TITLE “Get Out Of My Way”
PERFORMER “Rancid”
INDEX 01 32:17:00

Leave a Reply

Your email address will not be published. Required fields are marked *

This site uses Akismet to reduce spam. Learn how your comment data is processed.