Rancid & Nofx – Split




Artist: Rancid & Nofx
Year: 2002
Genre: Punk
Notes: Discogs
Add. Notes:
Encoder: FLAC
Bitrate: ~1000 kBit/s (44.1 kHz/16 Bit/s)
Bin/Cue incl.: Yes
Size: 200,68 MB
Password: “slam” (without ” “)


http://www.share-online.biz/dl/GJ7GKRRPVHJ
https://rapidgator.net/file/ca48a0d6fcb40dd6c89ecef61f321328
https://uploadbyte.com/wacto2raw1yq
https://uploadever.com/xrrwsdbbqa8j

Tracklist:

1 - NOFX - I'm The One - 
2 - NOFX - Olympia WA - 
3 - NOFX - Tenderloin - 
4 - NOFX - Antennaes - 
5 - NOFX - Corozon De Oro - 
6 - NOFX - Radio - 
7 - Rancid - Moron Bros - 
8 - Rancid - Stickin In My Eye - 
9 - Rancid - Bob - 
10 - Rancid - Don't Call Me White - 
11 - Rancid - Brews - 
12 - Rancid - Vanilla Sex

EAC-Log, CUE-Sheed & NFO:

Click to open spoiler
Exact Audio Copy V0.99 prebeta 5 from 4. May 2009

Отчёт EAC об извлечении, выполненном 22. октября 2009, 23:28

Rancid/NOFX / BYO Split Series / Volume III

Дисковод: SONY DVD-ROM DDU1621 Adapter: 3 ID: 1

Режим чтения : Достоверность
Использование точного потока : Да
Отключение кэша аудио : Да
Использование указателей C2 : Нет

Коррекция смещения при чтении : 12
Способность читать области Lead-in и Lead-out : Нет
Заполнение пропущенных сэмплов тишиной : Да
Удаление блоков с тишиной в начале и конце : Нет
При вычислениях CRC использовались нулевые сэмплы : Да
Интерфейс : Установленный внешний ASPI-интерфейс

Выходной формат : Внутренние WAV-операции
Формат сэмплов : 44.100 Гц; 16 бит; стерео

TOC извлечённого CD

Трек | Старт | Длительность | Начальный сектор | Конечный сектор
———————————————————————
1 | 0:00.00 | 1:54.55 | 0 | 8604
2 | 1:54.55 | 1:49.60 | 8605 | 16839
3 | 3:44.40 | 2:01.40 | 16840 | 25954
4 | 5:46.05 | 2:45.58 | 25955 | 38387
5 | 8:31.63 | 2:06.14 | 38388 | 47851
6 | 10:38.02 | 2:30.33 | 47852 | 59134
7 | 13:08.35 | 1:50.30 | 59135 | 67414
8 | 14:58.65 | 2:58.45 | 67415 | 80809
9 | 17:57.35 | 1:24.15 | 80810 | 87124
10 | 19:21.50 | 1:19.00 | 87125 | 93049
11 | 20:40.50 | 3:11.40 | 93050 | 107414
12 | 23:52.15 | 2:50.70 | 107415 | 120234

Характеристики диапазона извлечения и сообщения об ошибках

Выбранный диапазон

Имя файла D:\Загрузки\Rancid\Rancid & Nofx-Split CD\Rancid NOFX – BYO Split Series Volume III.wav

Пиковый уровень 100.0 %
Качество диапазона 100.0 %
CRC теста 8DC797AA
CRC копии 8DC797AA
Копирование… OK

Ошибок не произошло

AccurateRip: сводка

Трек 1 точное извлечение (доверие 7) [5626DFF2]
Трек 2 точное извлечение (доверие 7) [7AD76091]
Трек 3 точное извлечение (доверие 7) [367941D4]
Трек 4 точное извлечение (доверие 7) [4978F10E]
Трек 5 точное извлечение (доверие 7) [2F410F42]
Трек 6 точное извлечение (доверие 7) [5E286B0D]
Трек 7 точное извлечение (доверие 7) [3A201C29]
Трек 8 точное извлечение (доверие 7) [CDFAEC4E]
Трек 9 точное извлечение (доверие 7) [1519BE86]
Трек 10 точное извлечение (доверие 7) [5D8C3862]
Трек 11 точное извлечение (доверие 7) [A596AFC9]
Трек 12 точное извлечение (доверие 7) [0C8752C5]

Все треки извлечены точно

Конец отчёта

REM GENRE “Punk Rock”
REM DATE 2002
REM DISCID 8006430C
REM COMMENT “ExactAudioCopy v0.99pb5”
PERFORMER “Rancid/NOFX”
TITLE “BYO Split Series / Volume III”
FILE “Rancid NOFX – BYO Split Series Volume III.wav” WAVE
TRACK 01 AUDIO
TITLE “Moron Bros (Rancid)”
PERFORMER “Rancid/NOFX”
INDEX 01 00:00:00
TRACK 02 AUDIO
TITLE “Stickin in My Eye (Rancid)”
PERFORMER “Rancid/NOFX”
INDEX 01 01:54:55
TRACK 03 AUDIO
TITLE “Bob (Rancid)”
PERFORMER “Rancid/NOFX”
INDEX 01 03:44:40
TRACK 04 AUDIO
TITLE “Don’t Call Me White (Rancid)”
PERFORMER “Rancid/NOFX”
INDEX 01 05:46:05
TRACK 05 AUDIO
TITLE “Brews (Rancid)”
PERFORMER “Rancid/NOFX”
INDEX 01 08:31:63
TRACK 06 AUDIO
TITLE “Vanilla Sex (Rancid)”
PERFORMER “Rancid/NOFX”
INDEX 01 10:38:02
TRACK 07 AUDIO
TITLE “I’m the One (NOFX)”
PERFORMER “Rancid/NOFX”
INDEX 00 13:06:35
INDEX 01 13:08:35
TRACK 08 AUDIO
TITLE “Olympia WA (NOFX)”
PERFORMER “Rancid/NOFX”
INDEX 01 14:58:65
TRACK 09 AUDIO
TITLE “Tenderloin (NOFX)”
PERFORMER “Rancid/NOFX”
INDEX 01 17:57:35
TRACK 10 AUDIO
TITLE “Antennaes (NOFX)”
PERFORMER “Rancid/NOFX”
INDEX 01 19:21:50
TRACK 11 AUDIO
TITLE “Corozon de Dro (NOFX)”
PERFORMER “Rancid/NOFX”
INDEX 00 20:39:48
INDEX 01 20:40:50
TRACK 12 AUDIO
TITLE “Radio (NOFX)”
PERFORMER “Rancid/NOFX”
INDEX 00 23:50:15
INDEX 01 23:52:15

Leave a Reply

Your email address will not be published. Required fields are marked *

This site uses Akismet to reduce spam. Learn how your comment data is processed.