Rancid – Let’s Go




Artist: Rancid
Year: 1994
Genre: Punk
Notes: Discogs
Add. Notes:
Cover incl.: Yes
Encoder: FLAC
Bitrate: ~1000 kBit/s (44.1 kHz/16 Bit/s)
Log & Cue incl.: Yes
Size: 346,5 MB
Password: “slam” (without ” “)


All Downloads/Hosters are compatible

Download 1
Turbobit.net
Rapidgator.net
UploadEver.com
JustUpload.io
UsersDrive.com
Download 2
Turbobit.net
Rapidgator.net
UploadEver.com
JustUpload.io
UsersDrive.com
Download 3
Turbobit.net
Rapidgator.net
UploadEver.com
JustUpload.io
UsersDrive.com

Tracklist:

1 - Nihilism - 2:01
2 - Radio - 2:51
3 - Side Kick - 2:00
4 - Salvation - 2:53
5 - Tenderloin - 1:31
6 - Let's Go - 1:26
7 - As One - 1:33
8 - Burn - 2:10
9 - The Ballad Of Jimmy & Johnny - 1:39
10 - Gunshot - 1:50
11 - I Am The One - 1:57
12 - Gave It Away - 1:12
13 - Ghetto Box - 1:11
14 - Harry Bridges - 2:20
15 - Black & Blue - 1:58
16 - St. Mary - 2:09
17 - Dope Sick Girl - 2:14
18 - International Cover-Up - 1:43
19 - Solidarity - 1:31
20 - Midnight - 1:54
21 - Motorcycle Ride - 1:19
22 - Name - 2:12
23 - 7 Years Down - 2:34

EAC-Log, CUE-Sheed & NFO:

Click to open spoiler
Exact Audio Copy V0.99 prebeta 5 from 4. May 2009

Отчёт EAC об извлечении, выполненном 22. октября 2009, 20:35

Rancid / Let’s Go

Дисковод: SONY DVD-ROM DDU1621 Adapter: 3 ID: 1

Режим чтения : Достоверность
Использование точного потока : Да
Отключение кэша аудио : Да
Использование указателей C2 : Нет

Коррекция смещения при чтении : 12
Способность читать области Lead-in и Lead-out : Нет
Заполнение пропущенных сэмплов тишиной : Да
Удаление блоков с тишиной в начале и конце : Нет
При вычислениях CRC использовались нулевые сэмплы : Да
Интерфейс : Установленный внешний ASPI-интерфейс

Выходной формат : Внутренние WAV-операции
Формат сэмплов : 44.100 Гц; 16 бит; стерео

TOC извлечённого CD

Трек | Старт | Длительность | Начальный сектор | Конечный сектор
———————————————————————
1 | 0:00.00 | 2:01.38 | 0 | 9112
2 | 2:01.38 | 2:51.27 | 9113 | 21964
3 | 4:52.65 | 2:00.63 | 21965 | 31027
4 | 6:53.53 | 2:53.40 | 31028 | 44042
5 | 9:47.18 | 1:31.70 | 44043 | 50937
6 | 11:19.13 | 1:26.02 | 50938 | 57389
7 | 12:45.15 | 1:33.65 | 57390 | 64429
8 | 14:19.05 | 2:10.40 | 64430 | 74219
9 | 16:29.45 | 1:39.33 | 74220 | 81677
10 | 18:09.03 | 1:50.22 | 81678 | 89949
11 | 19:59.25 | 1:57.18 | 89950 | 98742
12 | 21:56.43 | 1:12.55 | 98743 | 104197
13 | 23:09.23 | 1:11.32 | 104198 | 109554
14 | 24:20.55 | 2:20.53 | 109555 | 120107
15 | 26:41.33 | 1:58.45 | 120108 | 129002
16 | 28:40.03 | 2:09.37 | 129003 | 138714
17 | 30:49.40 | 2:14.48 | 138715 | 148812
18 | 33:04.13 | 1:43.65 | 148813 | 156602
19 | 34:48.03 | 1:31.22 | 156603 | 163449
20 | 36:19.25 | 1:54.53 | 163450 | 172052
21 | 38:14.03 | 1:19.62 | 172053 | 178039
22 | 39:33.65 | 2:12.20 | 178040 | 187959
23 | 41:46.10 | 2:34.58 | 187960 | 199567

Характеристики диапазона извлечения и сообщения об ошибках

Выбранный диапазон

Имя файла D:\Загрузки\Rancid\Rancid-Let’s Go\Rancid – Let’s Go.wav

Пиковый уровень 97.7 %
Качество диапазона 100.0 %
CRC теста 30796B4B
CRC копии 30796B4B
Копирование… OK

Ошибок не произошло

AccurateRip: сводка

Трек 1 точное извлечение (доверие 27) [FABE69F7]
Трек 2 точное извлечение (доверие 27) [D47E6771]
Трек 3 точное извлечение (доверие 27) [F69E2F2C]
Трек 4 точное извлечение (доверие 27) [1ED42C69]
Трек 5 точное извлечение (доверие 26) [1312CAE7]
Трек 6 точное извлечение (доверие 26) [DB1DCD35]
Трек 7 точное извлечение (доверие 27) [B6D8DCEE]
Трек 8 точное извлечение (доверие 27) [34AB15E0]
Трек 9 точное извлечение (доверие 27) [B348AC9E]
Трек 10 точное извлечение (доверие 27) [7D02325B]
Трек 11 точное извлечение (доверие 27) [D99C6BBF]
Трек 12 точное извлечение (доверие 27) [C041B6CE]
Трек 13 точное извлечение (доверие 27) [A1E499E6]
Трек 14 точное извлечение (доверие 26) [F67653F4]
Трек 15 точное извлечение (доверие 26) [B4A36294]
Трек 16 точное извлечение (доверие 27) [B28BA17E]
Трек 17 точное извлечение (доверие 27) [213F561F]
Трек 18 точное извлечение (доверие 27) [4C504C01]
Трек 19 точное извлечение (доверие 27) [88B4D65A]
Трек 20 точное извлечение (доверие 27) [909D90A9]
Трек 21 точное извлечение (доверие 27) [E498FC4B]
Трек 22 точное извлечение (доверие 27) [48B436F9]
Трек 23 точное извлечение (доверие 27) [9F6155E9]

Все треки извлечены точно

Конец отчёта

REM GENRE Punk
REM DATE 1994
REM DISCID 3B0A6417
REM COMMENT “ExactAudioCopy v0.99pb5”
PERFORMER “Rancid”
TITLE “Let’s Go”
FILE “Rancid – Let’s Go.wav” WAVE
TRACK 01 AUDIO
TITLE “Nihilism”
PERFORMER “Rancid”
INDEX 01 00:00:00
TRACK 02 AUDIO
TITLE “Radio”
PERFORMER “Rancid”
INDEX 01 02:01:38
TRACK 03 AUDIO
TITLE “Sidekick”
PERFORMER “Rancid”
INDEX 01 04:52:65
TRACK 04 AUDIO
TITLE “Salvation”
PERFORMER “Rancid”
INDEX 01 06:53:53
TRACK 05 AUDIO
TITLE “Tenderloin”
PERFORMER “Rancid”
INDEX 01 09:47:18
TRACK 06 AUDIO
TITLE “Let’s Go”
PERFORMER “Rancid”
INDEX 01 11:19:13
TRACK 07 AUDIO
TITLE “As One”
PERFORMER “Rancid”
INDEX 01 12:45:15
TRACK 08 AUDIO
TITLE “Burn”
PERFORMER “Rancid”
INDEX 01 14:19:05
TRACK 09 AUDIO
TITLE “The Ballad Of Jimmy & Johnny”
PERFORMER “Rancid”
INDEX 01 16:29:45
TRACK 10 AUDIO
TITLE “Gunshot”
PERFORMER “Rancid”
INDEX 01 18:09:03
TRACK 11 AUDIO
TITLE “I Am The One”
PERFORMER “Rancid”
INDEX 01 19:59:25
TRACK 12 AUDIO
TITLE “Gave It Away”
PERFORMER “Rancid”
INDEX 01 21:56:43
TRACK 13 AUDIO
TITLE “Ghetto Box”
PERFORMER “Rancid”
INDEX 01 23:09:23
TRACK 14 AUDIO
TITLE “Harry Bridges”
PERFORMER “Rancid”
INDEX 01 24:20:55
TRACK 15 AUDIO
TITLE “Black & Blue”
PERFORMER “Rancid”
INDEX 01 26:41:33
TRACK 16 AUDIO
TITLE “St. Mary”
PERFORMER “Rancid”
INDEX 01 28:40:03
TRACK 17 AUDIO
TITLE “Dope Sick Girl”
PERFORMER “Rancid”
INDEX 01 30:49:40
TRACK 18 AUDIO
TITLE “International Cover-up”
PERFORMER “Rancid”
INDEX 01 33:04:13
TRACK 19 AUDIO
TITLE “Solidarity”
PERFORMER “Rancid”
INDEX 01 34:48:03
TRACK 20 AUDIO
TITLE “Midnight”
PERFORMER “Rancid”
INDEX 01 36:19:25
TRACK 21 AUDIO
TITLE “Motorcycle Ride”
PERFORMER “Rancid”
INDEX 01 38:14:03
TRACK 22 AUDIO
TITLE “Name”
PERFORMER “Rancid”
INDEX 01 39:33:65
TRACK 23 AUDIO
TITLE “7 Years Down”
PERFORMER “Rancid”
INDEX 01 41:46:10

Leave a Reply

Your email address will not be published. Required fields are marked *

Enter the text from the image below
 

This site uses Akismet to reduce spam. Learn how your comment data is processed.