Rancid – Let The Dominoes Fall




Artist: Rancid
Year: 2009
Genre: Ska
Notes: Discogs
Add. Notes:
Cover incl.: Yes
Encoder: FLAC
Bitrate: ~1000 kBit/s (44.1 kHz/16 Bit/s)
Log & Cue incl.: Yes
Size: 544,08 MB
Password: “slam” (without ” “)


All Downloads/Hosters are compatible

Download 1
Turbobit.net
Rapidgator.net
UploadByte.com
UploadEver.com
JustUpload.io
Download 2
Turbobit.net
Rapidgator.net
UploadByte.com
UploadEver.com
JustUpload.io
Download 3
Turbobit.net
Rapidgator.net
UploadByte.com
UploadEver.com
JustUpload.io

Tracklist:

CD1-1 - East Bay Night 
CD1-2 - This Place 
CD1-3 - Up To No Good 
CD1-4 - Last One To Die 
CD1-5 - Disconnected 
CD1-6 - I Ain't Worried 
CD1-7 - Damnation 
CD1-8 - New Orleans 
CD1-9 - Civilian Ways 
CD1-10 - The Bravest Kids 
CD1-11 - Skull City 
CD1-12 - LA River 
CD1-13 - Lulu 
CD1-14 - Dominoes Fall 
CD1-15 - Liberty And Freedom 
CD1-16 - You Want It, You Got It 
CD1-17 - Locomotive 
CD1-18 - That's Just The Way It Is Now 
CD1-19 - The Highway 
Let The Dominoes Fall Acoustic
CD2-1 - East Bay Night 
CD2-2 - LA River 
CD2-3 - I Ain't Worried 
CD2-4 - This Place 
CD2-5 - Disconnected 
CD2-6 - Liberty And Freedom 
CD2-7 - Dominoes Fall 
CD2-8 - New Orleans 
CD2-9 - You Want It, You Got It 
CD2-10 - Outgunned 
CD2-11 - The Bravest Kids 
CD2-12 - Last One To Die

EAC-Log, CUE-Sheed & NFO:

Click to open spoiler
Exact Audio Copy V0.99 prebeta 3 from 28. July 2007

Отчёт EAC об извлечении, выполненном 11. января 2013, 0:01

Rancid / Let The Dominoes Fall Acoustic

Дисковод: ASUS DRW-24B3LT Adapter: 0 ID: 3

Режим чтения : Достоверность
Использование точного потока : Да
Отключение кэша аудио : Да
Использование указателей C2 : Нет

Коррекция смещения при чтении : 6
Способность читать области Lead-in и Lead-out : Нет
Заполнение пропущенных сэмплов тишиной : Да
Удаление блоков с тишиной в начале и конце : Нет
При вычислениях CRC использовались нулевые сэмплы : Да
Интерфейс : Встроенный Win32-интерфейс для Win NT/2000

Выходной формат : Внутренние WAV-операции
Формат сэмплов : 44.100 Гц; 16 бит; стерео

TOC извлечённого CD

Трек | Старт | Длительность | Начальный сектор | Конечный сектор
———————————————————————
1 | 0:00.00 | 2:07.09 | 0 | 9533
2 | 2:07.09 | 2:43.22 | 9534 | 21780
3 | 4:50.31 | 2:44.08 | 21781 | 34088
4 | 7:34.39 | 1:03.63 | 34089 | 38876
5 | 8:38.27 | 1:53.48 | 38877 | 47399
6 | 10:32.00 | 3:04.41 | 47400 | 61240
7 | 13:36.41 | 2:54.70 | 61241 | 74360
8 | 16:31.36 | 2:48.55 | 74361 | 87015
9 | 19:20.16 | 2:12.26 | 87016 | 96941
10 | 21:32.42 | 2:16.28 | 96942 | 107169
11 | 23:48.70 | 1:34.02 | 107170 | 114221
12 | 25:22.72 | 2:18.36 | 114222 | 124607

Характеристики диапазона извлечения и сообщения об ошибках

Выбранный диапазон

Имя файла E:\Rancid-Let The Dominoes Fall\Let The Dominoes Fall Acoustic\Rancid – Let The Dominoes Fall Acoustic.wav

Пиковый уровень 99.9 %
Качество диапазона 100.0 %
CRC теста AA07509F
CRC копии AA07509F
Копирование… OK

Ошибок не произошло

AccurateRip: сводка

Трек 1 нет в базе данных
Трек 2 нет в базе данных
Трек 3 нет в базе данных
Трек 4 нет в базе данных
Трек 5 нет в базе данных
Трек 6 нет в базе данных
Трек 7 нет в базе данных
Трек 8 нет в базе данных
Трек 9 нет в базе данных
Трек 10 нет в базе данных
Трек 11 нет в базе данных
Трек 12 нет в базе данных

Ни одного трека нет в базе AccurateRip

Конец отчёта

Exact Audio Copy V0.99 prebeta 3 from 28. July 2007

Отчёт EAC об извлечении, выполненном 10. января 2013, 23:43

RANCID / Let The Dominoes Fall

Дисковод: ASUS DRW-24B3LT Adapter: 0 ID: 3

Режим чтения : Достоверность
Использование точного потока : Да
Отключение кэша аудио : Да
Использование указателей C2 : Нет

Коррекция смещения при чтении : 6
Способность читать области Lead-in и Lead-out : Нет
Заполнение пропущенных сэмплов тишиной : Да
Удаление блоков с тишиной в начале и конце : Нет
При вычислениях CRC использовались нулевые сэмплы : Да
Интерфейс : Встроенный Win32-интерфейс для Win NT/2000

Выходной формат : Внутренние WAV-операции
Формат сэмплов : 44.100 Гц; 16 бит; стерео

TOC извлечённого CD

Трек | Старт | Длительность | Начальный сектор | Конечный сектор
———————————————————————
1 | 0:00.00 | 2:05.51 | 0 | 9425
2 | 2:05.51 | 1:03.63 | 9426 | 14213
3 | 3:09.39 | 2:40.27 | 14214 | 26240
4 | 5:49.66 | 2:23.45 | 26241 | 37010
5 | 8:13.36 | 2:00.36 | 37011 | 46046
6 | 10:13.72 | 2:36.25 | 46047 | 57771
7 | 12:50.22 | 1:30.11 | 57772 | 64532
8 | 14:20.33 | 3:04.14 | 64533 | 78346
9 | 17:24.47 | 4:11.06 | 78347 | 97177
10 | 21:35.53 | 1:36.41 | 97178 | 104418
11 | 23:12.19 | 2:51.25 | 104419 | 117268
12 | 26:03.44 | 2:35.57 | 117269 | 128950
13 | 28:39.26 | 2:11.60 | 128951 | 138835
14 | 30:51.11 | 2:43.38 | 138836 | 151098
15 | 33:34.49 | 2:45.23 | 151099 | 163496
16 | 36:19.72 | 1:36.49 | 163497 | 170745
17 | 37:56.46 | 1:38.21 | 170746 | 178116
18 | 39:34.67 | 2:52.50 | 178117 | 191066
19 | 42:27.42 | 3:10.20 | 191067 | 205336
20 | 45:37.62 | 2:17.26 | 205337 | 215637

Характеристики диапазона извлечения и сообщения об ошибках

Выбранный диапазон

Имя файла E:\Rancid-Let The Dominoes Fall\Let The Dominoes Fall\RANCID – Let The Dominoes Fall.wav

Пиковый уровень 100.0 %
Качество диапазона 100.0 %
CRC теста 43FA0AC2
CRC копии 43FA0AC2
Копирование… OK

Ошибок не произошло

AccurateRip: сводка

Трек 1 точное извлечение (доверие 2) [C7F1FBC0]
Трек 2 точное извлечение (доверие 2) [61340197]
Трек 3 точное извлечение (доверие 2) [27EF812E]
Трек 4 точное извлечение (доверие 2) [404A061E]
Трек 5 точное извлечение (доверие 2) [54626709]
Трек 6 точное извлечение (доверие 2) [959AEDAD]
Трек 7 точное извлечение (доверие 2) [BA6B88E3]
Трек 8 точное извлечение (доверие 2) [33E8DC8E]
Трек 9 точное извлечение (доверие 2) [8A3C1E97]
Трек 10 нет в базе данных
Трек 11 точное извлечение (доверие 2) [742F986E]
Трек 12 точное извлечение (доверие 2) [9D876CBD]
Трек 13 точное извлечение (доверие 2) [C26B7E8C]
Трек 14 точное извлечение (доверие 2) [D98D31F3]
Трек 15 точное извлечение (доверие 2) [66087DE5]
Трек 16 точное извлечение (доверие 2) [C837BEC2]
Трек 17 точное извлечение (доверие 2) [FF4A12E6]
Трек 18 точное извлечение (доверие 2) [2C977CF5]
Трек 19 точное извлечение (доверие 2) [B9A84158]
Трек 20 точное извлечение (доверие 2) [97AEF98F]

19 трек(и) скопированы точно
1 трек(и) не содержатся в базе AccurateRip

Некоторые треки не прошли проверку на точность

Конец отчёта

REM GENRE Punk
REM DATE 2009
REM DISCID 1E0B3B14
REM COMMENT “ExactAudioCopy v0.99pb3”
PERFORMER “RANCID”
TITLE “Let The Dominoes Fall”
FILE “RANCID – Let The Dominoes Fall.wav” WAVE
TRACK 01 AUDIO
TITLE “East Bay Night”
PERFORMER “RANCID”
INDEX 01 00:00:00
TRACK 02 AUDIO
TITLE “This Place”
PERFORMER “RANCID”
INDEX 01 02:05:51
TRACK 03 AUDIO
TITLE “Up To No Good”
PERFORMER “RANCID”
INDEX 01 03:09:39
TRACK 04 AUDIO
TITLE “Last One To Die”
PERFORMER “RANCID”
INDEX 01 05:49:66
TRACK 05 AUDIO
TITLE “Disconnected”
PERFORMER “RANCID”
INDEX 01 08:13:36
TRACK 06 AUDIO
TITLE “I Ain’t Worried”
PERFORMER “RANCID”
INDEX 01 10:13:72
TRACK 07 AUDIO
TITLE “Damnation”
PERFORMER “RANCID”
INDEX 01 12:50:22
TRACK 08 AUDIO
TITLE “New Orleans”
PERFORMER “RANCID”
INDEX 01 14:20:33
TRACK 09 AUDIO
TITLE “Civilian Ways”
PERFORMER “RANCID”
INDEX 00 17:23:23
INDEX 01 17:24:47
TRACK 10 AUDIO
TITLE “The Bravest Kids”
PERFORMER “RANCID”
INDEX 01 21:35:53
TRACK 11 AUDIO
TITLE “Skull City”
PERFORMER “RANCID”
INDEX 01 23:12:19
TRACK 12 AUDIO
TITLE “L.A.River”
PERFORMER “RANCID”
INDEX 01 26:03:44
TRACK 13 AUDIO
TITLE “Lulu”
PERFORMER “RANCID”
INDEX 00 28:38:03
INDEX 01 28:39:26
TRACK 14 AUDIO
TITLE “Dominoes Fall”
PERFORMER “RANCID”
INDEX 01 30:51:11
TRACK 15 AUDIO
TITLE “Liberty And Freedom”
PERFORMER “RANCID”
INDEX 01 33:34:49
TRACK 16 AUDIO
TITLE “You Want It,You Got It”
PERFORMER “RANCID”
INDEX 01 36:19:72
TRACK 17 AUDIO
TITLE “Locomotive”
PERFORMER “RANCID”
INDEX 01 37:56:46
TRACK 18 AUDIO
TITLE “That’s Just The Way It Is Now”
PERFORMER “RANCID”
INDEX 01 39:34:67
TRACK 19 AUDIO
TITLE “The Highway”
PERFORMER “RANCID”
INDEX 01 42:27:42
TRACK 20 AUDIO
TITLE “Outgunned”
PERFORMER “RANCID”
INDEX 00 45:36:25
INDEX 01 45:37:62

REM GENRE “Punk Rock”
REM DATE 2009
REM DISCID 92067D0C
REM COMMENT “ExactAudioCopy v0.99pb3”
PERFORMER “Rancid”
TITLE “Let The Dominoes Fall Acoustic”
FILE “Rancid – Let The Dominoes Fall Acoustic.wav” WAVE
TRACK 01 AUDIO
TITLE “01. East Bay Night ”
PERFORMER “Rancid”
INDEX 01 00:00:00
TRACK 02 AUDIO
TITLE “02. L.A. River ”
PERFORMER “Rancid”
INDEX 00 02:05:11
INDEX 01 02:07:09
TRACK 03 AUDIO
TITLE “03. I Ain’t Worried ”
PERFORMER “Rancid”
INDEX 01 04:50:31
TRACK 04 AUDIO
TITLE “04. This Place ”
PERFORMER “Rancid”
INDEX 01 07:34:39
TRACK 05 AUDIO
TITLE “05. Disconnected ”
PERFORMER “Rancid”
INDEX 00 08:37:31
INDEX 01 08:38:27
TRACK 06 AUDIO
TITLE “06. Liberty And Freedom ”
PERFORMER “Rancid”
INDEX 00 10:30:56
INDEX 01 10:32:00
TRACK 07 AUDIO
TITLE “07. Dominoes Fall ”
PERFORMER “Rancid”
INDEX 01 13:36:41
TRACK 08 AUDIO
TITLE “08. New Orleans ”
PERFORMER “Rancid”
INDEX 00 16:30:33
INDEX 01 16:31:36
TRACK 09 AUDIO
TITLE “09. You Want It, You Got It ”
PERFORMER “Rancid”
INDEX 01 19:20:16
TRACK 10 AUDIO
TITLE “10. Outgunned ”
PERFORMER “Rancid”
INDEX 00 21:31:73
INDEX 01 21:32:42
TRACK 11 AUDIO
TITLE “11. The Bravest Kids ”
PERFORMER “Rancid”
INDEX 01 23:48:70
TRACK 12 AUDIO
TITLE “12. Last One To Die ”
PERFORMER “Rancid”
INDEX 00 25:21:58
INDEX 01 25:22:72

Leave a Reply

Your email address will not be published. Required fields are marked *

This site uses Akismet to reduce spam. Learn how your comment data is processed.