Rancid – Indestructible




Artist: Rancid
Year: 2003
Genre: Ska
Notes: Discogs
Add. Notes:
Encoder: FLAC
Bitrate: ~1000 kBit/s (44.1 kHz/16 Bit/s)
Bin/Cue incl.: Yes
Size: 429,97 MB
Password: “slam” (without ” “)


http://www.share-online.biz/dl/1A6ZQRRPMUB
https://rapidgator.net/file/c4b767bf7d0dfd7ae7b0bf829f61b4a2
https://uploadbyte.com/zibvsdhh1it7
https://uploadever.com/0mn5l4qr993j

Tracklist:

1 - Indestructible - 1:36
2 - Fall Back Down - 3:43
3 - Red Hot Moon - 3:36
4 - David Courtney - 2:44
5 - Start Now - 3:05
6 - Out Of Control - 1:41
7 - Django - 2:25
8 - Arrested In Shanghai - 4:11
9 - Travis Bickle - 2:16
10 - Memphis - 3:25
11 - Spirit Of '87 - 3:22
12 - Ghost Band - 1:37
13 - Tropical London - 3:01
14 - Roadblock - 1:58
15 - Born Frustrated - 2:56
16 - Back Up Against The Wall - 3:20
17 - Ivory Coast - 2:19
18 - Stand Your Ground - 3:24
19 - Otherside - 1:52

EAC-Log, CUE-Sheed & NFO:

Click to open spoiler
Exact Audio Copy V0.99 prebeta 5 from 4. May 2009

Отчёт EAC об извлечении, выполненном 22. октября 2009, 22:45

Rancid / Indestructible

Дисковод: SONY DVD-ROM DDU1621 Adapter: 3 ID: 1

Режим чтения : Достоверность
Использование точного потока : Да
Отключение кэша аудио : Да
Использование указателей C2 : Нет

Коррекция смещения при чтении : 12
Способность читать области Lead-in и Lead-out : Нет
Заполнение пропущенных сэмплов тишиной : Да
Удаление блоков с тишиной в начале и конце : Нет
При вычислениях CRC использовались нулевые сэмплы : Да
Интерфейс : Установленный внешний ASPI-интерфейс

Выходной формат : Внутренние WAV-операции
Формат сэмплов : 44.100 Гц; 16 бит; стерео

TOC извлечённого CD

Трек | Старт | Длительность | Начальный сектор | Конечный сектор
———————————————————————
1 | 0:00.00 | 1:36.44 | 0 | 7243
2 | 1:36.44 | 3:43.18 | 7244 | 23986
3 | 5:19.62 | 3:36.00 | 23987 | 40186
4 | 8:55.62 | 2:44.15 | 40187 | 52501
5 | 11:40.02 | 3:05.58 | 52502 | 66434
6 | 14:45.60 | 1:41.31 | 66435 | 74040
7 | 16:27.16 | 2:25.07 | 74041 | 84922
8 | 18:52.23 | 4:11.20 | 84923 | 103767
9 | 23:03.43 | 2:16.67 | 103768 | 114034
10 | 25:20.35 | 3:25.48 | 114035 | 129457
11 | 28:46.08 | 3:22.63 | 129458 | 144670
12 | 32:08.71 | 1:37.72 | 144671 | 152017
13 | 33:46.68 | 3:01.70 | 152018 | 165662
14 | 36:48.63 | 1:58.41 | 165663 | 174553
15 | 38:47.29 | 2:56.07 | 174554 | 187760
16 | 41:43.36 | 3:20.73 | 187761 | 202833
17 | 45:04.34 | 2:19.54 | 202834 | 213312
18 | 47:24.13 | 3:24.33 | 213313 | 228645
19 | 50:48.46 | 1:52.71 | 228646 | 237116

Характеристики диапазона извлечения и сообщения об ошибках

Выбранный диапазон

Имя файла D:\Загрузки\Rancid\Rancid-Indestructible\Rancid – Indestructible.wav

Пиковый уровень 99.6 %
Качество диапазона 99.9 %
CRC теста 843B2F47
CRC копии 843B2F47
Копирование… OK

Ошибок не произошло

AccurateRip: сводка

Трек 1 точное извлечение (доверие 30) [9EF0614C]
Трек 2 точное извлечение (доверие 30) [5CBBB0E6]
Трек 3 точное извлечение (доверие 30) [BAA090D5]
Трек 4 точное извлечение (доверие 30) [1B75B8E0]
Трек 5 точное извлечение (доверие 30) [89A50242]
Трек 6 точное извлечение (доверие 30) [599406AD]
Трек 7 точное извлечение (доверие 30) [7F91E9EF]
Трек 8 точное извлечение (доверие 30) [43D3C23B]
Трек 9 точное извлечение (доверие 30) [D74278F7]
Трек 10 точное извлечение (доверие 30) [936508A3]
Трек 11 точное извлечение (доверие 30) [31A36584]
Трек 12 точное извлечение (доверие 30) [09475D87]
Трек 13 точное извлечение (доверие 30) [0D15C5BF]
Трек 14 точное извлечение (доверие 30) [3E594343]
Трек 15 точное извлечение (доверие 30) [5A0973CA]
Трек 16 точное извлечение (доверие 30) [10CC8D56]
Трек 17 точное извлечение (доверие 30) [D59EB95D]
Трек 18 точное извлечение (доверие 30) [8422ED81]
Трек 19 точное извлечение (доверие 30) [1BE0E119]

Все треки извлечены точно

Конец отчёта

REM GENRE Rock
REM DATE 2003
REM DISCID FD0C5913
REM COMMENT “ExactAudioCopy v0.99pb5”
PERFORMER “Rancid”
TITLE “Indestructible”
FILE “Rancid – Indestructible.wav” WAVE
TRACK 01 AUDIO
TITLE “Indestructible”
PERFORMER “Rancid”
INDEX 01 00:00:00
TRACK 02 AUDIO
TITLE “Fall Back Down”
PERFORMER “Rancid”
INDEX 01 01:36:44
TRACK 03 AUDIO
TITLE “Red Hot Moon”
PERFORMER “Rancid”
INDEX 01 05:19:62
TRACK 04 AUDIO
TITLE “David Courtney”
PERFORMER “Rancid”
INDEX 01 08:55:62
TRACK 05 AUDIO
TITLE “Start Now”
PERFORMER “Rancid”
INDEX 00 11:39:26
INDEX 01 11:40:02
TRACK 06 AUDIO
TITLE “Out Of Control”
PERFORMER “Rancid”
INDEX 01 14:45:60
TRACK 07 AUDIO
TITLE “Django”
PERFORMER “Rancid”
INDEX 01 16:27:16
TRACK 08 AUDIO
TITLE “Arrested In Shanghai”
PERFORMER “Rancid”
INDEX 01 18:52:23
TRACK 09 AUDIO
TITLE “Travis Bickle”
PERFORMER “Rancid”
INDEX 01 23:03:43
TRACK 10 AUDIO
TITLE “Memphis”
PERFORMER “Rancid”
INDEX 01 25:20:35
TRACK 11 AUDIO
TITLE “Spirit Of ’87”
PERFORMER “Rancid”
INDEX 01 28:46:08
TRACK 12 AUDIO
TITLE “Ghost Band”
PERFORMER “Rancid”
INDEX 01 32:08:71
TRACK 13 AUDIO
TITLE “Tropical London”
PERFORMER “Rancid”
INDEX 01 33:46:68
TRACK 14 AUDIO
TITLE “Roadblock”
PERFORMER “Rancid”
INDEX 01 36:48:63
TRACK 15 AUDIO
TITLE “Born Frustrated”
PERFORMER “Rancid”
INDEX 01 38:47:29
TRACK 16 AUDIO
TITLE “Back Up Against The Wall”
PERFORMER “Rancid”
INDEX 01 41:43:36
TRACK 17 AUDIO
TITLE “Ivory Coast”
PERFORMER “Rancid”
INDEX 01 45:04:34
TRACK 18 AUDIO
TITLE “Stand Your Ground”
PERFORMER “Rancid”
INDEX 01 47:24:13
TRACK 19 AUDIO
TITLE “Otherside”
PERFORMER “Rancid”
INDEX 00 50:48:13
INDEX 01 50:48:46

Leave a Reply

Your email address will not be published. Required fields are marked *

This site uses Akismet to reduce spam. Learn how your comment data is processed.