Rancid – ife Won’t Wait




Artist: Rancid
Year: 1998
Genre: Ska
Notes: Discogs
Add. Notes:
Cover incl.: Yes
Encoder: FLAC
Bitrate: ~1000 kBit/s (44.1 kHz/16 Bit/s)
Log & Cue incl.: Yes
Size: 565,09 MB
Password: “slam” (without ” “)


All Downloads/Hosters are compatible

Download 1
Turbobit.net
Rapidgator.net
UploadEver.com
JustUpload.io
HexUpload.net
Download 2
Turbobit.net
Rapidgator.net
UploadEver.com
JustUpload.io
HexUpload.net
Download 3
Turbobit.net
Rapidgator.net
UploadEver.com
JustUpload.io
HexUpload.net

Tracklist:

1 - Intro - 0:48
2 - Bloodclot - 2:45
3 - Hoover Street - 4:09
4 - Black Lung - 1:53
5 - Life Won't Wait - 3:48
6 - New Dress - 2:51
7 - Warsaw - 1:31
8 - Hooligans - 2:32
9 - Crane Fist - 3:48
10 - Leicester Square - 2:34
11 - Backslide - 2:53
12 - Who Would've Thought - 2:56
13 - Cash, Culture And Violence - 3:10
14 - Cocktails - 3:20
15 - The Wolf - 2:38
16 - 1998 - 2:45
17 - Lady Liberty - 2:20
18 - Wrongful Suspicion - 3:31
19 - Turntable - 2:16
20 - Something In The World Today - 2:33
21 - Corazon De Oro - 3:58
22 - Coppers - 5:01

EAC-Log, CUE-Sheed & NFO:

Click to open spoiler
Exact Audio Copy V0.99 prebeta 5 from 4. May 2009

Отчёт EAC об извлечении, выполненном 22. октября 2009, 21:45

Rancid / Life Won’t Wait

Дисковод: SONY DVD-ROM DDU1621 Adapter: 3 ID: 1

Режим чтения : Достоверность
Использование точного потока : Да
Отключение кэша аудио : Да
Использование указателей C2 : Нет

Коррекция смещения при чтении : 12
Способность читать области Lead-in и Lead-out : Нет
Заполнение пропущенных сэмплов тишиной : Да
Удаление блоков с тишиной в начале и конце : Нет
При вычислениях CRC использовались нулевые сэмплы : Да
Интерфейс : Установленный внешний ASPI-интерфейс

Выходной формат : Внутренние WAV-операции
Формат сэмплов : 44.100 Гц; 16 бит; стерео

TOC извлечённого CD

Трек | Старт | Длительность | Начальный сектор | Конечный сектор
———————————————————————
1 | 0:00.00 | 0:48.25 | 0 | 3624
2 | 0:48.25 | 2:45.15 | 3625 | 16014
3 | 3:33.40 | 4:09.57 | 16015 | 34746
4 | 7:43.22 | 1:53.33 | 34747 | 43254
5 | 9:36.55 | 3:48.02 | 43255 | 60356
6 | 13:24.57 | 2:51.10 | 60357 | 73191
7 | 16:15.67 | 1:31.38 | 73192 | 80054
8 | 17:47.30 | 2:32.55 | 80055 | 91509
9 | 20:20.10 | 3:48.02 | 91510 | 108611
10 | 24:08.12 | 2:34.73 | 108612 | 120234
11 | 26:43.10 | 2:53.45 | 120235 | 133254
12 | 29:36.55 | 2:56.57 | 133255 | 146511
13 | 32:33.37 | 3:10.10 | 146512 | 160771
14 | 35:43.47 | 3:20.33 | 160772 | 175804
15 | 39:04.05 | 2:38.65 | 175805 | 187719
16 | 41:42.70 | 2:45.65 | 187720 | 200159
17 | 44:28.60 | 2:20.30 | 200160 | 210689
18 | 46:49.15 | 3:31.52 | 210690 | 226566
19 | 50:20.67 | 2:16.55 | 226567 | 236821
20 | 52:37.47 | 2:33.45 | 236822 | 248341
21 | 55:11.17 | 3:58.70 | 248342 | 266261
22 | 59:10.12 | 5:01.55 | 266262 | 288891
23 | 64:11.67 | 3:14.48 | 288892 | 303489

Характеристики диапазона извлечения и сообщения об ошибках

Выбранный диапазон

Имя файла D:\Загрузки\Rancid\Rancid-Life Won’t Wait\Rancid – Life Won’t Wait.wav

Пиковый уровень 100.0 %
Качество диапазона 99.9 %
CRC теста 1814A326
CRC копии 1814A326
Копирование… OK

Ошибок не произошло

AccurateRip: сводка

Трек 1 точное извлечение (доверие 1) [A57A81D1]
Трек 2 точное извлечение (доверие 1) [C92ACBFC]
Трек 3 точное извлечение (доверие 1) [86F35ADB]
Трек 4 точное извлечение (доверие 1) [59D83E92]
Трек 5 точное извлечение (доверие 1) [E16731E0]
Трек 6 точное извлечение (доверие 1) [68E8DB22]
Трек 7 точное извлечение (доверие 1) [9B7AF8F4]
Трек 8 точное извлечение (доверие 1) [04B781EE]
Трек 9 точное извлечение (доверие 1) [6B49D72D]
Трек 10 точное извлечение (доверие 1) [E6AEFBD0]
Трек 11 точное извлечение (доверие 1) [AFE525D1]
Трек 12 точное извлечение (доверие 1) [DF145E6D]
Трек 13 точное извлечение (доверие 1) [22C80C11]
Трек 14 точное извлечение (доверие 1) [FD3C68BA]
Трек 15 точное извлечение (доверие 1) [E5CA4798]
Трек 16 точное извлечение (доверие 1) [95B3B2F8]
Трек 17 точное извлечение (доверие 1) [A04CE662]
Трек 18 точное извлечение (доверие 1) [00658AE2]
Трек 19 точное извлечение (доверие 1) [D308D897]
Трек 20 точное извлечение (доверие 1) [157E7046]
Трек 21 точное извлечение (доверие 1) [8DE5EFE4]
Трек 22 точное извлечение (доверие 1) [5561FB32]
Трек 23 точное извлечение (доверие 1) [A4AD4D7B]

Все треки извлечены точно

Конец отчёта

REM DISCID 360FCE17
REM COMMENT “ExactAudioCopy v0.99pb5”
PERFORMER “Rancid”
TITLE “Life Won’t Wait”
FILE “Rancid – Life Won’t Wait.wav” WAVE
TRACK 01 AUDIO
TITLE “Intro”
PERFORMER “Rancid”
INDEX 01 00:00:00
TRACK 02 AUDIO
TITLE “Bloodclot”
PERFORMER “Rancid”
INDEX 01 00:48:25
TRACK 03 AUDIO
TITLE “Hoover Street”
PERFORMER “Rancid”
INDEX 01 03:33:40
TRACK 04 AUDIO
TITLE “Black Lung”
PERFORMER “Rancid”
INDEX 01 07:43:22
TRACK 05 AUDIO
TITLE “Life Won’t Wait”
PERFORMER “Rancid”
INDEX 01 09:36:55
TRACK 06 AUDIO
TITLE “New Dress”
PERFORMER “Rancid”
INDEX 01 13:24:57
TRACK 07 AUDIO
TITLE “Warsaw”
PERFORMER “Rancid”
INDEX 01 16:15:67
TRACK 08 AUDIO
TITLE “Hooligans”
PERFORMER “Rancid”
INDEX 01 17:47:30
TRACK 09 AUDIO
TITLE “Crane Fist”
PERFORMER “Rancid”
INDEX 01 20:20:10
TRACK 10 AUDIO
TITLE “Leicester Square”
PERFORMER “Rancid”
INDEX 01 24:08:12
TRACK 11 AUDIO
TITLE “Backslide”
PERFORMER “Rancid”
INDEX 01 26:43:10
TRACK 12 AUDIO
TITLE “Who Would’ve Thought”
PERFORMER “Rancid”
INDEX 01 29:36:55
TRACK 13 AUDIO
TITLE “Cash,Culture And Violence”
PERFORMER “Rancid”
INDEX 01 32:33:37
TRACK 14 AUDIO
TITLE “Cocktails”
PERFORMER “Rancid”
INDEX 01 35:43:47
TRACK 15 AUDIO
TITLE “The Wolf”
PERFORMER “Rancid”
INDEX 01 39:04:05
TRACK 16 AUDIO
TITLE “1998”
PERFORMER “Rancid”
INDEX 01 41:42:70
TRACK 17 AUDIO
TITLE “Lady Liberty”
PERFORMER “Rancid”
INDEX 01 44:28:60
TRACK 18 AUDIO
TITLE “Wrongful Suspicion”
PERFORMER “Rancid”
INDEX 01 46:49:15
TRACK 19 AUDIO
TITLE “Turntable”
PERFORMER “Rancid”
INDEX 01 50:20:67
TRACK 20 AUDIO
TITLE “Something In The World Today”
PERFORMER “Rancid”
INDEX 01 52:37:47
TRACK 21 AUDIO
TITLE “Corazon de Oro”
PERFORMER “Rancid”
INDEX 01 55:11:17
TRACK 22 AUDIO
TITLE “Coppers”
PERFORMER “Rancid”
INDEX 01 59:10:12
TRACK 23 AUDIO
TITLE “Things To Come ”
PERFORMER “Rancid”
INDEX 01 64:11:67

Leave a Reply

Your email address will not be published. Required fields are marked *

This site uses Akismet to reduce spam. Learn how your comment data is processed.