Rancid – B Sides And C Sides




Artist: Rancid
Year: 2008
Genre: Punk
Notes: Discogs
Add. Notes:
Encoder: FLAC
Bitrate: ~1000 kBit/s (44.1 kHz/16 Bit/s)
Bin/Cue incl.: Yes
Size: 420,46 MB
Password: “slam” (without ” “)


http://www.share-online.biz/dl/L2VJLTRPBAA

https://rapidgator.net/file/b789d120ff41815137ff0e79c85b3d1e

https://uploadbyte.com/08dkcvpixjoo

https://justupload.io/wr2564bf4k7h

https://uploadever.com/qip95yje07e7

Tracklist:

1 - Ben Zanotto - 2:02
2 - Stop - 1:41
3 - Devils Dance - 3:03
4 - Dead And Gone - 2:06
5 - Stranded - 2:24
6 - Killing Zone - 2:39
7 - 100 Years - 1:56
8 - Things To Come - 3:09
9 - Blast Em' - 2:29
10 - Endrina - 1:14
11 - White Knuckle Ride - 1:24
12 - Sick Sick World - 1:16
13 - Tattoo - 2:05
14 - That's Entertainment - 1:29
15 - Clockwork Orange - 2:45
16 - The Brothels - 2:57
17 - Just A Feeling - 1:56
18 - Brixton - 2:25
19 - Empros Lap Dog - 1:54
20 - I Wanna Riot - 3:06
21 - Kill The Lights - 1:19
Bonus Tracks
22 - I'm Not The One - 2:45
23 - Battering Ram - 2:58
24 - The Sentence - 1:39
25 - Media Controller - 1:57
26 - Idol Hands - 2:02

EAC-Log, CUE-Sheed & NFO:

Click to open spoiler
Exact Audio Copy V0.99 prebeta 5 from 4. May 2009

Отчёт EAC об извлечении, выполненном 17. октября 2009, 11:23

RANCID / B sides and C sides

Дисковод: SONY DVD-ROM DDU1621 Adapter: 3 ID: 1

Режим чтения : Достоверность
Использование точного потока : Да
Отключение кэша аудио : Да
Использование указателей C2 : Нет

Коррекция смещения при чтении : 12
Способность читать области Lead-in и Lead-out : Нет
Заполнение пропущенных сэмплов тишиной : Да
Удаление блоков с тишиной в начале и конце : Нет
При вычислениях CRC использовались нулевые сэмплы : Да
Интерфейс : Установленный внешний ASPI-интерфейс

Выходной формат : Внутренние WAV-операции
Формат сэмплов : 44.100 Гц; 16 бит; стерео

TOC извлечённого CD

Трек | Старт | Длительность | Начальный сектор | Конечный сектор
———————————————————————
1 | 0:00.00 | 2:02.59 | 0 | 9208
2 | 2:02.59 | 1:41.45 | 9209 | 16828
3 | 3:44.29 | 3:03.66 | 16829 | 30619
4 | 6:48.20 | 2:06.43 | 30620 | 40112
5 | 8:54.63 | 2:24.53 | 40113 | 50965
6 | 11:19.41 | 2:39.28 | 50966 | 62918
7 | 13:58.69 | 1:56.49 | 62919 | 71667
8 | 15:55.43 | 3:09.36 | 71668 | 85878
9 | 19:05.04 | 2:29.08 | 85879 | 97061
10 | 21:34.12 | 1:14.24 | 97062 | 102635
11 | 22:48.36 | 1:24.55 | 102636 | 108990
12 | 24:13.16 | 1:16.36 | 108991 | 114726
13 | 25:29.52 | 2:05.70 | 114727 | 124171
14 | 27:35.47 | 1:29.19 | 124172 | 130865
15 | 29:04.66 | 2:45.32 | 130866 | 143272
16 | 31:50.23 | 2:57.34 | 143273 | 156581
17 | 34:47.57 | 1:56.67 | 156582 | 165348
18 | 36:44.49 | 2:25.47 | 165349 | 176270
19 | 39:10.21 | 1:54.25 | 176271 | 184845
20 | 41:04.46 | 3:06.25 | 184846 | 198820
21 | 44:10.71 | 1:19.57 | 198821 | 204802
22 | 45:30.53 | 2:45.38 | 204803 | 217215
23 | 48:16.16 | 2:58.14 | 217216 | 230579
24 | 51:14.30 | 1:39.23 | 230580 | 238027
25 | 52:53.53 | 1:57.68 | 238028 | 246870
26 | 54:51.46 | 2:02.34 | 246871 | 256054

Характеристики диапазона извлечения и сообщения об ошибках

Выбранный диапазон

Имя файла D:\Загрузки\Rancid-B sides And C sides (Japan Version, Bonus Tracks)\RANCID – B sides and C sides.wav

Пиковый уровень 100.0 %
Качество диапазона 100.0 %
CRC теста 64B9CF3B
CRC копии 64B9CF3B
Копирование… OK

Ошибок не произошло

AccurateRip: сводка

Трек 1 точное извлечение (доверие 3) [675B1A05]
Трек 2 точное извлечение (доверие 3) [D854FC6F]
Трек 3 точное извлечение (доверие 3) [BEB426EA]
Трек 4 точное извлечение (доверие 3) [DE307B34]
Трек 5 точное извлечение (доверие 3) [1C803DBD]
Трек 6 точное извлечение (доверие 3) [47A918D0]
Трек 7 точное извлечение (доверие 3) [06221431]
Трек 8 точное извлечение (доверие 3) [C9166CF8]
Трек 9 точное извлечение (доверие 3) [A969C804]
Трек 10 точное извлечение (доверие 3) [851C4DBA]
Трек 11 точное извлечение (доверие 3) [526B1E59]
Трек 12 точное извлечение (доверие 3) [1311ABF3]
Трек 13 точное извлечение (доверие 3) [240F4EF7]
Трек 14 точное извлечение (доверие 3) [6BEE3969]
Трек 15 точное извлечение (доверие 3) [008D04C7]
Трек 16 точное извлечение (доверие 3) [85C03FB6]
Трек 17 точное извлечение (доверие 3) [CEC46FD6]
Трек 18 точное извлечение (доверие 3) [D5D7E0D5]
Трек 19 точное извлечение (доверие 3) [6327704A]
Трек 20 точное извлечение (доверие 3) [A4F00270]
Трек 21 точное извлечение (доверие 3) [65A351E0]
Трек 22 точное извлечение (доверие 3) [5EEA325E]
Трек 23 точное извлечение (доверие 3) [7DED7461]
Трек 24 точное извлечение (доверие 3) [5F51C153]
Трек 25 точное извлечение (доверие 3) [4A113491]
Трек 26 точное извлечение (доверие 3) [B226BC07]

Все треки извлечены точно

Конец отчёта

REM GENRE “Punk Rock”
REM DATE 2008
REM DISCID 700D561A
REM COMMENT “ExactAudioCopy v0.99pb5”
PERFORMER “RANCID”
TITLE “B sides and C sides”
FILE “RANCID – B sides and C sides.wav” WAVE
TRACK 01 AUDIO
TITLE “Ben Zanotto”
PERFORMER “RANCID”
INDEX 01 00:00:00
TRACK 02 AUDIO
TITLE “Stop”
PERFORMER “RANCID”
INDEX 01 02:02:59
TRACK 03 AUDIO
TITLE “Devil’s Dance”
PERFORMER “RANCID”
INDEX 01 03:44:29
TRACK 04 AUDIO
TITLE “Dead and Gone”
PERFORMER “RANCID”
INDEX 01 06:48:20
TRACK 05 AUDIO
TITLE “Stranded”
PERFORMER “RANCID”
INDEX 01 08:54:63
TRACK 06 AUDIO
TITLE “Killing Zone”
PERFORMER “RANCID”
INDEX 01 11:19:41
TRACK 07 AUDIO
TITLE “100 Years”
PERFORMER “RANCID”
INDEX 01 13:58:69
TRACK 08 AUDIO
TITLE “Things to Come”
PERFORMER “RANCID”
INDEX 01 15:55:43
TRACK 09 AUDIO
TITLE “Blast ‘Em”
PERFORMER “RANCID”
INDEX 01 19:05:04
TRACK 10 AUDIO
TITLE “Endrina”
PERFORMER “RANCID”
INDEX 01 21:34:12
TRACK 11 AUDIO
TITLE “White Knuckle Ride”
PERFORMER “RANCID”
INDEX 01 22:48:36
TRACK 12 AUDIO
TITLE “Sick Sick World”
PERFORMER “RANCID”
INDEX 01 24:13:16
TRACK 13 AUDIO
TITLE “Tattoo”
PERFORMER “RANCID”
INDEX 01 25:29:52
TRACK 14 AUDIO
TITLE “That’s Entertainment”
PERFORMER “RANCID”
INDEX 01 27:35:47
TRACK 15 AUDIO
TITLE “Clockwork Orange”
PERFORMER “RANCID”
INDEX 01 29:04:66
TRACK 16 AUDIO
TITLE “The Brothels”
PERFORMER “RANCID”
INDEX 01 31:50:23
TRACK 17 AUDIO
TITLE “Just a Feeling”
PERFORMER “RANCID”
INDEX 00 34:46:22
INDEX 01 34:47:57
TRACK 18 AUDIO
TITLE “Brixton”
PERFORMER “RANCID”
INDEX 01 36:44:49
TRACK 19 AUDIO
TITLE “Empros Lap Dog”
PERFORMER “RANCID”
INDEX 01 39:10:21
TRACK 20 AUDIO
TITLE “I Wanna Riot”
PERFORMER “RANCID”
INDEX 01 41:04:46
TRACK 21 AUDIO
TITLE “Kill the Lights”
PERFORMER “RANCID”
INDEX 01 44:10:71
TRACK 22 AUDIO
TITLE “I’m Not the Only One [Bonus Track]”
PERFORMER “RANCID”
INDEX 00 45:29:52
INDEX 01 45:30:53
TRACK 23 AUDIO
TITLE “Battering Ram [Bonus Track]”
PERFORMER “RANCID”
INDEX 00 48:15:08
INDEX 01 48:16:16
TRACK 24 AUDIO
TITLE “The Sentence [Bonus Track]”
PERFORMER “RANCID”
INDEX 00 51:12:49
INDEX 01 51:14:30
TRACK 25 AUDIO
TITLE “Media Controller [Bonus Track]”
PERFORMER “RANCID”
INDEX 00 52:51:68
INDEX 01 52:53:53
TRACK 26 AUDIO
TITLE “Idle Hands [Bonus Track]”
PERFORMER “RANCID”
INDEX 00 54:49:73
INDEX 01 54:51:46

Leave a Reply

Your email address will not be published. Required fields are marked *

This site uses Akismet to reduce spam. Learn how your comment data is processed.