Rancid – …And Out Come The Wolves




Artist: Rancid
Year: 1995
Genre: Punk
Notes: Discogs
Add. Notes:
Encoder: FLAC
Bitrate: ~1000 kBit/s (44.1 kHz/16 Bit/s)
Bin/Cue incl.: Yes
Size: 382,77 MB
Password: “slam” (without ” “)


http://www.share-online.biz/dl/9I3JYSRPJ3H
https://rapidgator.net/file/a2af86e72e3271a58d93a51c6d03b333
https://uploadbyte.com/ou84nnd9k3pm
https://justupload.io/nuah0274yhe2
https://uploadever.com/v9jw8chuvabd

Tracklist:

1 - Maxwell Murder - 1:25
2 - The 11th Hour - 2:28
3 - Roots Radicals - 2:47
4 - Time Bomb - 2:24
5 - Olympia WA. - 3:30
6 - Lock, Step & Gone - 2:25
7 - Junkie Man - 3:04
8 - Listed M.I.A. - 2:22
9 - Ruby Soho - 2:37
10 - Daly City Train - 3:21
11 - Journey To The End Of The East Bay - 3:11
12 - She's Automatic - 1:35
13 - Old Friend - 2:53
14 - Disorder And Disarray - 2:49
15 - The Wars End - 1:53
16 - You Don't Care Nothin' - 2:28
17 - As Wicked - 2:40
18 - Avenues & Alleyways - 3:11
19 - The Way I Feel - 2:34

EAC-Log, CUE-Sheed & NFO:

Click to open spoiler
Exact Audio Copy V0.99 prebeta 5 from 4. May 2009

Отчёт EAC об извлечении, выполненном 22. октября 2009, 20:58

Rancid / …And Out Come the Wolves

Дисковод: SONY DVD-ROM DDU1621 Adapter: 3 ID: 1

Режим чтения : Достоверность
Использование точного потока : Да
Отключение кэша аудио : Да
Использование указателей C2 : Нет

Коррекция смещения при чтении : 12
Способность читать области Lead-in и Lead-out : Нет
Заполнение пропущенных сэмплов тишиной : Да
Удаление блоков с тишиной в начале и конце : Нет
При вычислениях CRC использовались нулевые сэмплы : Да
Интерфейс : Установленный внешний ASPI-интерфейс

Выходной формат : Внутренние WAV-операции
Формат сэмплов : 44.100 Гц; 16 бит; стерео

TOC извлечённого CD

Трек | Старт | Длительность | Начальный сектор | Конечный сектор
———————————————————————
1 | 0:00.00 | 1:25.65 | 0 | 6439
2 | 1:25.65 | 2:28.02 | 6440 | 17541
3 | 3:53.67 | 2:47.38 | 17542 | 30104
4 | 6:41.30 | 2:24.25 | 30105 | 40929
5 | 9:05.55 | 3:30.47 | 40930 | 56726
6 | 12:36.27 | 2:25.30 | 56727 | 67631
7 | 15:01.57 | 3:04.63 | 67632 | 81494
8 | 18:06.45 | 2:22.35 | 81495 | 92179
9 | 20:29.05 | 2:37.40 | 92180 | 103994
10 | 23:06.45 | 3:21.32 | 103995 | 119101
11 | 26:28.02 | 3:11.45 | 119102 | 133471
12 | 29:39.47 | 1:35.03 | 133472 | 140599
13 | 31:14.50 | 2:53.60 | 140600 | 153634
14 | 34:08.35 | 2:49.32 | 153635 | 166341
15 | 36:57.67 | 1:53.48 | 166342 | 174864
16 | 38:51.40 | 2:28.25 | 174865 | 185989
17 | 41:19.65 | 2:40.65 | 185990 | 198054
18 | 44:00.55 | 3:11.65 | 198055 | 212444
19 | 47:12.45 | 2:34.17 | 212445 | 224011

Характеристики диапазона извлечения и сообщения об ошибках

Выбранный диапазон

Имя файла D:\Загрузки\Rancid\Rancid-…And Out Come The Wolves\Rancid – …And Out Come the Wolves.wav

Пиковый уровень 100.0 %
Качество диапазона 99.9 %
CRC теста 1B9AE6C9
CRC копии 1B9AE6C9
Копирование… OK

Ошибок не произошло

AccurateRip: сводка

Трек 1 точное извлечение (доверие 41) [D72CDF35]
Трек 2 точное извлечение (доверие 41) [BB1C2C6C]
Трек 3 точное извлечение (доверие 40) [00B8AAB1]
Трек 4 точное извлечение (доверие 41) [66077F28]
Трек 5 точное извлечение (доверие 41) [81E2C282]
Трек 6 точное извлечение (доверие 41) [1FDB009C]
Трек 7 точное извлечение (доверие 41) [03EAA5AE]
Трек 8 точное извлечение (доверие 42) [7FE2697F]
Трек 9 точное извлечение (доверие 42) [11DD0CD9]
Трек 10 точное извлечение (доверие 42) [C417625C]
Трек 11 точное извлечение (доверие 41) [FDBC170E]
Трек 12 точное извлечение (доверие 42) [AD8EF43B]
Трек 13 точное извлечение (доверие 42) [9CA0EFE3]
Трек 14 точное извлечение (доверие 42) [34B950F7]
Трек 15 точное извлечение (доверие 41) [CB7AE304]
Трек 16 точное извлечение (доверие 41) [318F63B0]
Трек 17 точное извлечение (доверие 40) [30938A84]
Трек 18 точное извлечение (доверие 40) [345B60B1]
Трек 19 точное извлечение (доверие 39) [FF6A9B93]

Все треки извлечены точно

Конец отчёта

REM GENRE “Punk Rock”
REM DATE 1995
REM DISCID 030BAA13
REM COMMENT “ExactAudioCopy v0.99pb5”
PERFORMER “Rancid”
TITLE “…And Out Come the Wolves”
FILE “Rancid – …And Out Come the Wolves.wav” WAVE
TRACK 01 AUDIO
TITLE “Maxwell Murder”
PERFORMER “Rancid”
INDEX 01 00:00:00
TRACK 02 AUDIO
TITLE “The 11th Hour”
PERFORMER “Rancid”
INDEX 01 01:25:65
TRACK 03 AUDIO
TITLE “Roots Radicals”
PERFORMER “Rancid”
INDEX 01 03:53:67
TRACK 04 AUDIO
TITLE “Time Bomb”
PERFORMER “Rancid”
INDEX 01 06:41:30
TRACK 05 AUDIO
TITLE “Olympia WA.”
PERFORMER “Rancid”
INDEX 01 09:05:55
TRACK 06 AUDIO
TITLE “Lock, Step & Gone”
PERFORMER “Rancid”
INDEX 01 12:36:27
TRACK 07 AUDIO
TITLE “Junkie Man”
PERFORMER “Rancid”
INDEX 01 15:01:57
TRACK 08 AUDIO
TITLE “Listed M.I.A.”
PERFORMER “Rancid”
INDEX 01 18:06:45
TRACK 09 AUDIO
TITLE “Ruby Soho”
PERFORMER “Rancid”
INDEX 01 20:29:05
TRACK 10 AUDIO
TITLE “Daly City Train”
PERFORMER “Rancid”
INDEX 01 23:06:45
TRACK 11 AUDIO
TITLE “Journey To The End Of The East Bay”
PERFORMER “Rancid”
INDEX 01 26:28:02
TRACK 12 AUDIO
TITLE “She’s Automatic”
PERFORMER “Rancid”
INDEX 01 29:39:47
TRACK 13 AUDIO
TITLE “Old Friend”
PERFORMER “Rancid”
INDEX 01 31:14:50
TRACK 14 AUDIO
TITLE “Disorder And Disarray”
PERFORMER “Rancid”
INDEX 01 34:08:35
TRACK 15 AUDIO
TITLE “The Wars End”
PERFORMER “Rancid”
INDEX 01 36:57:67
TRACK 16 AUDIO
TITLE “You Don’t Care Nothin'”
PERFORMER “Rancid”
INDEX 01 38:51:40
TRACK 17 AUDIO
TITLE “As Wicked”
PERFORMER “Rancid”
INDEX 01 41:19:65
TRACK 18 AUDIO
TITLE “Avenues & Alleyways”
PERFORMER “Rancid”
INDEX 01 44:00:55
TRACK 19 AUDIO
TITLE “The Way I Feel”
PERFORMER “Rancid”
INDEX 01 47:12:45

Leave a Reply

Your email address will not be published. Required fields are marked *

This site uses Akismet to reduce spam. Learn how your comment data is processed.