Ramones – Too Tough To Die




Artist: Ramones
Year: 1984
Genre: Punk
Notes: Discogs
Add. Notes:
Cover incl.: Yes
Encoder: FLAC
Bitrate: ~900 kBit/s (44.1 kHz/16 Bit/s)
Log & Cue incl.: Yes
Size: 278,81 MB
Password: “slam” (without ” “)


All Downloads/Hosters are compatible

Download 1
Turbobit.net
Rapidgator.net
UploadByte.com
UploadEver.com
JustUpload.io
Download 2
Turbobit.net
Rapidgator.net
UploadByte.com
UploadEver.com
JustUpload.io
Download 3
Turbobit.net
Rapidgator.net
UploadByte.com
UploadEver.com
JustUpload.io

Tracklist:

1 - Mama's Boy - 2:09
2 - I'm Not Afraid Of Love - 3:12
3 - Too Tough To Die - 2:35
4 - Durango 95 - 0:55
5 - Wart Hog - 1:54
6 - Danger Zone - 2:03
7 - Chasing The Night - 4:25
8 - Howling At The Moon (Sha-La-La) - 4:06
9 - Daytime Dilemma (Danger Of Love) - 4:31
10 - Planet Earth 1988 - 2:54
11 - Human Kind - 2:41
12 - Endless Vacation - 1:45
13 - No Go - 3:03

EAC-Log, CUE-Sheed & NFO:

Click to open spoiler
Exact Audio Copy V0.99 prebeta 3 from 28. July 2007

EAC extraction logfile from 13. November 2007, 16:42

The Ramones / Too Tough To Die

Used drive : HL-DT-STDVDRAM GSA-4160B Adapter: 5 ID: 1

Read mode : Secure
Utilize accurate stream : Yes
Defeat audio cache : Yes
Make use of C2 pointers : No

Read offset correction : 667
Overread into Lead-In and Lead-Out : No
Fill up missing offset samples with silence : Yes
Delete leading and trailing silent blocks : No
Null samples used in CRC calculations : Yes
Used interface : Installed external ASPI interface
Gap handling : Appended to previous track

Used output format : User Defined Encoder
Selected bitrate : 128 kBit/s
Quality : High
Add ID3 tag : No
Command line compressor : C:\Archivos de programa\Exact Audio Copy\flac.exe
Additional command line options : -8 -A tukey(0.25) -A gauss(0.1875) -b 4096 -V -T “artist=%a” -T “title=%t” -T “album=%g” -T “date=%y” -T “tracknumber=%n” -T “genre=%m” %s –sector-align

TOC of the extracted CD

Track | Start | Length | Start sector | End sector
———————————————————
1 | 0:00.32 | 2:10.73 | 32 | 9854
2 | 2:11.30 | 3:13.07 | 9855 | 24336
3 | 5:24.37 | 2:37.20 | 24337 | 36131
4 | 8:01.57 | 0:55.18 | 36132 | 40274
5 | 8:57.00 | 1:54.47 | 40275 | 48871
6 | 10:51.47 | 2:09.00 | 48872 | 58546
7 | 13:00.47 | 4:27.03 | 58547 | 78574
8 | 17:27.50 | 4:07.15 | 78575 | 97114
9 | 21:34.65 | 4:33.00 | 97115 | 117589
10 | 26:07.65 | 2:54.70 | 117590 | 130709
11 | 29:02.60 | 2:42.07 | 130710 | 142866
12 | 31:44.67 | 1:48.25 | 142867 | 150991
13 | 33:33.17 | 3:03.70 | 150992 | 164786

Track 1

Filename C:\Archivos de programa\Exact Audio Copy\Output\Ramones – Too Tough To Die\01 – The Ramones – Mama’s Boy.wav

Pre-gap length 0:00:02.42

Peak level 81.0 %
Track quality 100.0 %
Test CRC 0045D4CF
Copy CRC 0045D4CF
Accurately ripped (confidence 1) [EC9FB839]
Copy OK

Track 2

Filename C:\Archivos de programa\Exact Audio Copy\Output\Ramones – Too Tough To Die\02 – The Ramones – I’m Not Afraid Of Life.wav

Pre-gap length 0:00:00.04

Peak level 75.7 %
Track quality 100.0 %
Test CRC 7EB9E20E
Copy CRC 7EB9E20E
Accurately ripped (confidence 1) [8C52C9CB]
Copy OK

Track 3

Filename C:\Archivos de programa\Exact Audio Copy\Output\Ramones – Too Tough To Die\03 – The Ramones – Too Tough To Die.wav

Pre-gap length 0:00:00.49

Peak level 74.0 %
Track quality 100.0 %
Test CRC 3FEBA2FE
Copy CRC 3FEBA2FE
Accurately ripped (confidence 1) [FDBAF2AA]
Copy OK

Track 4

Filename C:\Archivos de programa\Exact Audio Copy\Output\Ramones – Too Tough To Die\04 – The Ramones – Durango 95.wav

Pre-gap length 0:00:00.02

Peak level 75.8 %
Track quality 100.0 %
Test CRC 593FD3E2
Copy CRC 593FD3E2
Accurately ripped (confidence 1) [19BCEB25]
Copy OK

Track 5

Filename C:\Archivos de programa\Exact Audio Copy\Output\Ramones – Too Tough To Die\05 – The Ramones – Wart Hog.wav

Pre-gap length 0:00:00.04

Peak level 80.4 %
Track quality 100.0 %
Test CRC 7157EEA4
Copy CRC 7157EEA4
Accurately ripped (confidence 1) [F481D5DE]
Copy OK

Track 6

Filename C:\Archivos de programa\Exact Audio Copy\Output\Ramones – Too Tough To Die\06 – The Ramones – Danger Zone.wav

Pre-gap length 0:00:00.02

Peak level 82.0 %
Track quality 100.0 %
Test CRC 56914EE1
Copy CRC 56914EE1
Accurately ripped (confidence 1) [628F037F]
Copy OK

Track 7

Filename C:\Archivos de programa\Exact Audio Copy\Output\Ramones – Too Tough To Die\07 – The Ramones – Chasing The Night.wav

Pre-gap length 0:00:00.06

Peak level 74.8 %
Track quality 100.0 %
Test CRC 0089169E
Copy CRC 0089169E
Accurately ripped (confidence 1) [6334D1E5]
Copy OK

Track 8

Filename C:\Archivos de programa\Exact Audio Copy\Output\Ramones – Too Tough To Die\08 – The Ramones – Howling At The Moon (Sha-la-la).wav

Pre-gap length 0:00:00.40

Peak level 76.6 %
Track quality 100.0 %
Test CRC CC787B82
Copy CRC CC787B82
Accurately ripped (confidence 1) [95C98818]
Copy OK

Track 9

Filename C:\Archivos de programa\Exact Audio Copy\Output\Ramones – Too Tough To Die\09 – The Ramones – Daytime Dilemma (Dangers Of Love).wav

Pre-gap length 0:00:01.00

Peak level 77.3 %
Track quality 100.0 %
Test CRC 3778BADA
Copy CRC 3778BADA
Accurately ripped (confidence 1) [430CD8BB]
Copy OK

Track 10

Filename C:\Archivos de programa\Exact Audio Copy\Output\Ramones – Too Tough To Die\10 – The Ramones – Planet Earth 1988.wav

Pre-gap length 0:00:01.04

Peak level 76.8 %
Track quality 100.0 %
Test CRC 6D7AA8C6
Copy CRC 6D7AA8C6
Accurately ripped (confidence 1) [1F4284C7]
Copy OK

Track 11

Filename C:\Archivos de programa\Exact Audio Copy\Output\Ramones – Too Tough To Die\11 – The Ramones – Humankind.wav

Pre-gap length 0:00:00.20

Peak level 80.9 %
Track quality 100.0 %
Test CRC 58A0898B
Copy CRC 58A0898B
Accurately ripped (confidence 1) [D9328BBD]
Copy OK

Track 12

Filename C:\Archivos de programa\Exact Audio Copy\Output\Ramones – Too Tough To Die\12 – The Ramones – Endless Vacation.wav

Pre-gap length 0:00:00.02

Peak level 72.7 %
Track quality 100.0 %
Test CRC 46B61851
Copy CRC 46B61851
Accurately ripped (confidence 1) [EFC22E9B]
Copy OK

Track 13

Filename C:\Archivos de programa\Exact Audio Copy\Output\Ramones – Too Tough To Die\13 – The Ramones – No Go.wav

Pre-gap length 0:00:00.36

Peak level 78.1 %
Track quality 100.0 %
Test CRC 23E6E5B8
Copy CRC 23E6E5B8
Accurately ripped (confidence 1) [F8F5E464]
Copy OK

All tracks accurately ripped

No errors occurred

End of status report

REM GENRE Rock
REM DATE 1984
REM DISCID B008950D
REM COMMENT “ExactAudioCopy v0.99pb3”
PERFORMER “The Ramones”
TITLE “Too Tough To Die”
FILE “01 – The Ramones – Mama’s Boy.wav” WAVE
TRACK 01 AUDIO
TITLE “Mama’s Boy”
PERFORMER “The Ramones”
PREGAP 00:00:32
INDEX 01 00:00:00
TRACK 02 AUDIO
TITLE “I’m Not Afraid Of Life”
PERFORMER “The Ramones”
INDEX 00 02:10:70
FILE “02 – The Ramones – I’m Not Afraid Of Life.wav” WAVE
INDEX 01 00:00:00
TRACK 03 AUDIO
TITLE “Too Tough To Die”
PERFORMER “The Ramones”
INDEX 00 03:12:45
FILE “03 – The Ramones – Too Tough To Die.wav” WAVE
INDEX 01 00:00:00
TRACK 04 AUDIO
TITLE “Durango 95”
PERFORMER “The Ramones”
INDEX 00 02:37:18
FILE “04 – The Ramones – Durango 95.wav” WAVE
INDEX 01 00:00:00
TRACK 05 AUDIO
TITLE “Wart Hog”
PERFORMER “The Ramones”
INDEX 00 00:55:15
FILE “05 – The Ramones – Wart Hog.wav” WAVE
INDEX 01 00:00:00
TRACK 06 AUDIO
TITLE “Danger Zone”
PERFORMER “The Ramones”
INDEX 00 01:54:45
FILE “06 – The Ramones – Danger Zone.wav” WAVE
INDEX 01 00:00:00
TRACK 07 AUDIO
TITLE “Chasing The Night”
PERFORMER “The Ramones”
INDEX 00 02:08:70
FILE “07 – The Ramones – Chasing The Night.wav” WAVE
INDEX 01 00:00:00
TRACK 08 AUDIO
TITLE “Howling At The Moon (Sha-la-la)”
PERFORMER “The Ramones”
INDEX 00 04:26:48
FILE “08 – The Ramones – Howling At The Moon (Sha-la-la).wav” WAVE
INDEX 01 00:00:00
TRACK 09 AUDIO
TITLE “Daytime Dilemma (Dangers Of Love)”
PERFORMER “The Ramones”
INDEX 00 04:06:15
FILE “09 – The Ramones – Daytime Dilemma (Dangers Of Love).wav” WAVE
INDEX 01 00:00:00
TRACK 10 AUDIO
TITLE “Planet Earth 1988”
PERFORMER “The Ramones”
INDEX 00 04:31:72
FILE “10 – The Ramones – Planet Earth 1988.wav” WAVE
INDEX 01 00:00:00
TRACK 11 AUDIO
TITLE “Humankind”
PERFORMER “The Ramones”
INDEX 00 02:54:55
FILE “11 – The Ramones – Humankind.wav” WAVE
INDEX 01 00:00:00
TRACK 12 AUDIO
TITLE “Endless Vacation”
PERFORMER “The Ramones”
INDEX 00 02:42:05
FILE “12 – The Ramones – Endless Vacation.wav” WAVE
INDEX 01 00:00:00
TRACK 13 AUDIO
TITLE “No Go”
PERFORMER “The Ramones”
INDEX 00 01:47:73
FILE “13 – The Ramones – No Go.wav” WAVE
INDEX 01 00:00:00

Leave a Reply

Your email address will not be published. Required fields are marked *

Enter the text from the image below
 

This site uses Akismet to reduce spam. Learn how your comment data is processed.