Ramones – Too Tough To Die (Remastered)




Artist: Ramones
Year: 1984/2002
Genre: Punk
Notes: Discogs
Add. Notes: Remastered
Cover incl.: Yes
Encoder: FLAC
Bitrate: ~1000 kBit/s (44.1 kHz/16 Bit/s)
Log & Cue incl.: Yes
Size: 553,47 MB
Password: “slam” (without ” “)


All Downloads/Hosters are compatible

Download 1
Turbobit.net
Rapidgator.net
UploadEver.com
KatFile.com
UsersDrive.com
Download 2
Turbobit.net
Rapidgator.net
UploadEver.com
KatFile.com
UsersDrive.com
Download 3
Turbobit.net
Rapidgator.net
UploadEver.com
KatFile.com
UsersDrive.com

Tracklist:

1 - Mama's Boy - 2:11
2 - I'm Not Afraid Of Life - 3:13
3 - Too Tough To Die - 2:37
4 - Durango 95 - 0:55
5 - Wart Hog - 1:54
6 - Danger Zone - 2:08
7 - Chasing The Night - 4:27
8 - Howling At The Moon (Sha-La-La) - 4:07
9 - Daytime Dilemma (Dangers Of Love) - 4:32
10 - Planet Earth 1988 - 2:54
11 - Human Kind - 2:42
12 - Endless Vacation - 1:49
13 - No Go - 3:08
Bonus Tracks
14 - Street Fighting Man - 2:56
15 - Smash You - 2:23
16 - Howling At The Moon (Sha-La-La) (Demo) - 3:17
17 - Planet Earth 1988 (Dee Dee Vocal Version) - 3:02
18 - Daytime Dilemma (Dangers Of Love) (Demo) - 4:06
19 - Endless Vacation (Demo) - 1:46
20 - Danger Zone (Dee Dee Vocal Version) - 2:07
21 - Out Of Here - 4:10
22 - Mama's Boy (Demo) - 2:15
23 - I'm Not An Answer - 2:16
24 - Too Tough To Die (Dee Dee Vocal Version) - 2:35
25 - No Go (Demo) - 3:05

EAC-Log, CUE-Sheed & NFO:

Click to open spoiler
EAC extraction logfile from 2. November 2005, 12:06 for CD
Ramones / Too Tough To Die

Used drive : TOSHIBA ODD-DVD SD-M1802 Adapter: 1 ID: 1
Read mode : Secure with NO C2, accurate stream, disable cache
Read offset correction : 691
Overread into Lead-In and Lead-Out : No

Used output format : Internal WAV Routines
44.100 Hz; 16 Bit; Stereo

Other options :
Fill up missing offset samples with silence : Yes
Delete leading and trailing silent blocks : No
Installed external ASPI interface

Range status and errors
Selected range
Filename F:\mp3\Temp\Ramones.wav

Peak level 98.8 %
Range quality 100.0 %
CRC C7A2B0B7
Copy OK

No errors occured

End of status report

REM GENRE Punk
REM DATE 1984
REM DISCID 65109719
REM COMMENT “ExactAudioCopy v0.95b3”
CATALOG 0081227815820
PERFORMER “Ramones”
TITLE “Too Tough To Die”
FILE “Ramones.wav” WAVE
TRACK 01 AUDIO
TITLE “Mama’s Boy”
PERFORMER “Ramones”
ISRC USWB10201758
INDEX 01 00:00:00
TRACK 02 AUDIO
TITLE “I’m Not Afraid Of Life”
PERFORMER “Ramones”
ISRC USWB10201757
INDEX 01 02:11:67
TRACK 03 AUDIO
TITLE “Too Tough To Die”
PERFORMER “Ramones”
ISRC USWB10201759
INDEX 01 05:25:60
TRACK 04 AUDIO
TITLE “Durango 95”
PERFORMER “Ramones”
ISRC USWB10201760
INDEX 01 08:03:25
TRACK 05 AUDIO
TITLE “Wart Hog”
PERFORMER “Ramones”
ISRC USWB10201761
INDEX 01 08:58:30
TRACK 06 AUDIO
TITLE “Danger Zone”
PERFORMER “Ramones”
ISRC USWB10201762
INDEX 01 10:52:45
TRACK 07 AUDIO
TITLE “Chasing The Night”
PERFORMER “Ramones”
ISRC USWB10201763
INDEX 01 13:01:00
TRACK 08 AUDIO
TITLE “Howling At The Moon (Sha-La-La)”
PERFORMER “Ramones”
ISRC USWB10201763
INDEX 01 17:28:70
TRACK 09 AUDIO
TITLE “Daytime Dilemma (Dangers Of Love)”
PERFORMER “Ramones”
ISRC USWB10201765
INDEX 01 21:36:32
TRACK 10 AUDIO
TITLE “Planet Earth 1988”
PERFORMER “Ramones”
ISRC USWB10201766
INDEX 01 26:08:65
TRACK 11 AUDIO
TITLE “Humankind”
PERFORMER “Ramones”
ISRC USWB10201767
INDEX 01 29:03:40
TRACK 12 AUDIO
TITLE “Endless Vacation”
PERFORMER “Ramones”
ISRC USWB10201768
INDEX 01 31:46:30
TRACK 13 AUDIO
TITLE “No Go”
PERFORMER “Ramones”
ISRC USWB10201769
INDEX 01 33:35:45
TRACK 14 AUDIO
TITLE “Street Fighting Man”
PERFORMER “Ramones”
ISRC USWB10201864
INDEX 00 36:38:72
INDEX 01 36:44:42
TRACK 15 AUDIO
TITLE “Smash You”
PERFORMER “Ramones”
ISRC USWB10201865
INDEX 00 39:39:47
INDEX 01 39:41:30
TRACK 16 AUDIO
TITLE “Howling At The Moon (Sha-La-La) (demo)”
PERFORMER “Ramones”
ISRC USWB10201866
INDEX 00 42:02:70
INDEX 01 42:04:60
TRACK 17 AUDIO
TITLE “Planet Earth 1988 (Dee Dee vocal version)”
PERFORMER “Ramones”
ISRC USWB10201867
INDEX 00 45:20:42
INDEX 01 45:22:15
TRACK 18 AUDIO
TITLE “Daytime Dilemma (Dangers Of Love) (demo)”
PERFORMER “Ramones”
ISRC USWB10201868
INDEX 00 48:23:10
INDEX 01 48:24:37
TRACK 19 AUDIO
TITLE “Endless Vacation (demo)”
PERFORMER “Ramones”
ISRC USWB10201869
INDEX 01 52:30:47
TRACK 20 AUDIO
TITLE “Danger Zone (Dee Dee vocal version)”
PERFORMER “Ramones”
ISRC USWB10201870
INDEX 00 54:15:52
INDEX 01 54:16:60
TRACK 21 AUDIO
TITLE “Out Of Here”
PERFORMER “Ramones”
ISRC USWB10201871
INDEX 01 56:24:27
TRACK 22 AUDIO
TITLE “Mama’s Boy (demo)”
PERFORMER “Ramones”
ISRC USWB10201872
INDEX 00 60:33:07
INDEX 01 60:34:65
TRACK 23 AUDIO
TITLE “I’m Not An Answer”
PERFORMER “Ramones”
ISRC USWB10201855
INDEX 01 62:50:00
TRACK 24 AUDIO
TITLE “Too Tough To Die (Dee Dee vocal version)”
PERFORMER “Ramones”
ISRC USWB10201874
INDEX 00 65:05:32
INDEX 01 65:06:40
TRACK 25 AUDIO
TITLE “No Go (demo)”
PERFORMER “Ramones”
ISRC USWB10201874
INDEX 01 67:41:47

Leave a Reply

Your email address will not be published. Required fields are marked *

This site uses Akismet to reduce spam. Learn how your comment data is processed.