Ramones – Too Tough To Die (Japanese Edition)




Artist: Ramones
Year: 1984
Genre: Punk
Notes: Discogs
Add. Notes: Japanese Edition
Cover incl.: Yes
Encoder: FLAC
Bitrate: ~1000 kBit/s (44.1 kHz/16 Bit/s)
Log & Cue incl.: Yes
Size: 295,61 MB
Password: “slam” (without ” “)


All Downloads/Hosters are compatible

Download 1
Turbobit.net
Rapidgator.net
KatFile.com
UsersDrive.com
CloudShare.to
Download 2
Turbobit.net
Rapidgator.net
KatFile.com
UsersDrive.com
CloudShare.to
Download 3
Turbobit.net
Rapidgator.net
KatFile.com
UsersDrive.com
CloudShare.to

Tracklist:

1 - Mama's Boy - 2:11
2 - I'm Not Afraid Of Life - 3:13
3 - Too Tough To Die - 2:37
4 - Durango 95 - 0:55
5 - Wart Hog - 1:54
6 - Danger Zone - 2:08
7 - Chasing The Night - 4:27
8 - Howling At The Moon (Sha-La-La) - 4:07
9 - Daytime Dilemma (Dangers Of Love) - 4:32
10 - Planet Earth 1988 - 2:54
11 - Human Kind - 2:42
12 - Endless Vacation - 1:49
13 - No Go - 3:08

EAC-Log, CUE-Sheed & NFO:

Click to open spoiler
Exact Audio Copy V1.0 beta 1 from 15. November 2010

EAC extraction logfile from 8. May 2011, 23:45

Ramones / Too Tough To Die (WPCP-3147)

Used drive : PLEXTOR CD-R PREMIUM2 Adapter: 8 ID: 0

Read mode : Secure
Utilize accurate stream : Yes
Defeat audio cache : Yes
Make use of C2 pointers : No

Read offset correction : 30
Overread into Lead-In and Lead-Out : No
Fill up missing offset samples with silence : Yes
Delete leading and trailing silent blocks : No
Null samples used in CRC calculations : Yes
Used interface : Installed external ASPI interface

Used output format : Internal WAV Routines
Sample format : 44.100 Hz; 16 Bit; Stereo

TOC of the extracted CD

Track | Start | Length | Start sector | End sector
———————————————————
1 | 0:00.00 | 2:11.30 | 0 | 9854
2 | 2:11.30 | 3:13.15 | 9855 | 24344
3 | 5:24.45 | 2:37.25 | 24345 | 36144
4 | 8:01.70 | 0:55.15 | 36145 | 40284
5 | 8:57.10 | 1:54.50 | 40285 | 48884
6 | 10:51.60 | 2:09.17 | 48885 | 58576
7 | 13:01.02 | 4:28.20 | 58577 | 78696
8 | 17:29.22 | 4:07.25 | 78697 | 97246
9 | 21:36.47 | 4:33.10 | 97247 | 117731
10 | 26:09.57 | 2:55.05 | 117732 | 130861
11 | 29:04.62 | 2:42.08 | 130862 | 143019
12 | 31:46.70 | 1:48.32 | 143020 | 151151
13 | 33:35.27 | 3:05.10 | 151152 | 165036

Range status and errors

Selected range

Filename C:\AvaxHome.ru\1st CD pressings [Japan 1990]\1984- Too Tough To Die [WPCP-3147]\Ramones – Too Tough To Die (WPCP-3147).wav

Peak level 99.3 %
Extraction speed 0.5 X
Range quality 100.0 %
Test CRC BB985B04
Copy CRC BB985B04
Copy OK

No errors occurred

AccurateRip summary

Track 1 not present in database
Track 2 not present in database
Track 3 not present in database
Track 4 not present in database
Track 5 not present in database
Track 6 not present in database
Track 7 not present in database
Track 8 not present in database
Track 9 not present in database
Track 10 not present in database
Track 11 not present in database
Track 12 not present in database
Track 13 not present in database

None of the tracks are present in the AccurateRip database

End of status report

==== Log checksum 164292020C1401899F7422F88F6AAB3EDF9E9C0C10AACC5BD6AD9F8C1203B68B ====

REM GENRE “Punk Rock”
REM DATE 1984
REM DISCID AB08980D
REM COMMENT “ExactAudioCopy v1.0b1”
PERFORMER “Ramones”
TITLE “Too Tough To Die (WPCP-3147)”
FILE “Ramones – Too Tough To Die (WPCP-3147).flac” WAVE
TRACK 01 AUDIO
TITLE “Mama’s Boy”
PERFORMER “Ramones”
INDEX 01 00:00:00
TRACK 02 AUDIO
TITLE “I’m Not Afraid Of Live”
PERFORMER “Ramones”
INDEX 00 02:11:16
INDEX 01 02:11:30
TRACK 03 AUDIO
TITLE “Too Tough To Die”
PERFORMER “Ramones”
INDEX 01 05:24:45
TRACK 04 AUDIO
TITLE “Durango 95”
PERFORMER “Ramones”
INDEX 01 08:01:70
TRACK 05 AUDIO
TITLE “Wart Hog”
PERFORMER “Ramones”
INDEX 01 08:57:10
TRACK 06 AUDIO
TITLE “Danger Zone”
PERFORMER “Ramones”
INDEX 01 10:51:60
TRACK 07 AUDIO
TITLE “Chasing The Night”
PERFORMER “Ramones”
INDEX 01 13:01:02
TRACK 08 AUDIO
TITLE “Howling At The Moon (Sha-La-La)”
PERFORMER “Ramones”
INDEX 00 17:29:17
INDEX 01 17:29:22
TRACK 09 AUDIO
TITLE “Daytime Dilemma (Dangers Of Love)”
PERFORMER “Ramones”
INDEX 01 21:36:47
TRACK 10 AUDIO
TITLE “Planet Earth 1988”
PERFORMER “Ramones”
INDEX 01 26:09:57
TRACK 11 AUDIO
TITLE “Human Kind”
PERFORMER “Ramones”
INDEX 01 29:04:62
TRACK 12 AUDIO
TITLE “Endless Vacation”
PERFORMER “Ramones”
INDEX 01 31:46:70
TRACK 13 AUDIO
TITLE “No Go”
PERFORMER “Ramones”
INDEX 01 33:35:27

Leave a Reply

Your email address will not be published. Required fields are marked *

This site uses Akismet to reduce spam. Learn how your comment data is processed.