Ramones – Subterranean Jungle




Artist: Ramones
Year: 1983/1994
Genre: Punk
Notes: Discogs
Add. Notes:
Encoder: FLAC
Bitrate: ~900 kBit/s (44.1 kHz/16 Bit/s)
Bin/Cue incl.: Yes
Size: 261,04 MB
Password: “slam” (without ” “)


http://www.share-online.biz/dl/PX0GKRRPRESF
https://rapidgator.net/file/335a241a40ba959385e3cd8a075d8365
https://uploadbyte.com/8kl71ux0mc9q
https://uploadever.com/g9reuzoojt73

Tracklist:

1 - Little Bit O' Soul - 2:43
2 - I Need Your Love - 3:06
3 - Outsider - 2:10
4 - What'd Ya Do? - 2:24
5 - Highest Trails Above - 2:09
6 - Somebody Like Me - 2:33
7 - Psycho Therapy - 2:34
8 - Time Has Come Today - 4:25
9 - My-My Kind Of A Girl - 3:31
10 - In The Park - 2:37
11 - Time Bomb - 2:08
12 - Everytime I Eat Vegetables It Makes Me Think Of 
You - 3:06

EAC-Log, CUE-Sheed & NFO:

Click to open spoiler
Exact Audio Copy V0.99 prebeta 3 from 28. July 2007

EAC extraction logfile from 13. November 2007, 22:50

Ramones / Subterranean Jungle

Used drive : HL-DT-STDVDRAM GSA-4160B Adapter: 5 ID: 1

Read mode : Secure
Utilize accurate stream : Yes
Defeat audio cache : Yes
Make use of C2 pointers : No

Read offset correction : 667
Overread into Lead-In and Lead-Out : No
Fill up missing offset samples with silence : Yes
Delete leading and trailing silent blocks : No
Null samples used in CRC calculations : Yes
Used interface : Installed external ASPI interface
Gap handling : Appended to previous track

Used output format : User Defined Encoder
Selected bitrate : 128 kBit/s
Quality : High
Add ID3 tag : No
Command line compressor : C:\Archivos de programa\Exact Audio Copy\flac.exe
Additional command line options : -8 -A tukey(0.25) -A gauss(0.1875) -b 4096 -V -T “artist=%a” -T “title=%t” -T “album=%g” -T “date=%y” -T “tracknumber=%n” -T “genre=%m” %s –sector-align

TOC of the extracted CD

Track | Start | Length | Start sector | End sector
———————————————————
1 | 0:00.32 | 2:43.18 | 32 | 12274
2 | 2:43.50 | 3:06.37 | 12275 | 26261
3 | 5:50.12 | 2:10.50 | 26262 | 36061
4 | 8:00.62 | 2:24.30 | 36062 | 46891
5 | 10:25.17 | 2:09.63 | 46892 | 56629
6 | 12:35.05 | 2:33.42 | 56630 | 68146
7 | 15:08.47 | 2:34.08 | 68147 | 79704
8 | 17:42.55 | 4:25.30 | 79705 | 99609
9 | 22:08.10 | 3:32.00 | 99610 | 115509
10 | 25:40.10 | 2:37.07 | 115510 | 127291
11 | 28:17.17 | 2:08.48 | 127292 | 136939
12 | 30:25.65 | 3:06.27 | 136940 | 150916

Track 1

Filename C:\Archivos de programa\Exact Audio Copy\Output\Ramones – Subterranean Jungle\01 – Ramones – Little Bit O’ Soul.wav

Pre-gap length 0:00:02.42

Peak level 74.7 %
Track quality 100.0 %
Test CRC 841D5E8C
Copy CRC 841D5E8C
Track not present in AccurateRip database
Copy OK

Track 2

Filename C:\Archivos de programa\Exact Audio Copy\Output\Ramones – Subterranean Jungle\02 – Ramones – I Need Your Love.wav

Pre-gap length 0:00:00.04

Peak level 79.1 %
Track quality 100.0 %
Test CRC 767EAE26
Copy CRC 767EAE26
Track not present in AccurateRip database
Copy OK

Track 3

Filename C:\Archivos de programa\Exact Audio Copy\Output\Ramones – Subterranean Jungle\03 – Ramones – Outsider.wav

Pre-gap length 0:00:00.02

Peak level 79.2 %
Track quality 100.0 %
Test CRC F36E0C2F
Copy CRC F36E0C2F
Track not present in AccurateRip database
Copy OK

Track 4

Filename C:\Archivos de programa\Exact Audio Copy\Output\Ramones – Subterranean Jungle\04 – Ramones – What’ D Ya Do .wav

Pre-gap length 0:00:00.02

Peak level 81.7 %
Track quality 100.0 %
Test CRC 0054BACB
Copy CRC 0054BACB
Track not present in AccurateRip database
Copy OK

Track 5

Filename C:\Archivos de programa\Exact Audio Copy\Output\Ramones – Subterranean Jungle\05 – Ramones – Highest Trails Above.wav

Pre-gap length 0:00:00.02

Peak level 86.6 %
Track quality 99.9 %
Test CRC F5E0AF02
Copy CRC F5E0AF02
Track not present in AccurateRip database
Copy OK

Track 6

Filename C:\Archivos de programa\Exact Audio Copy\Output\Ramones – Subterranean Jungle\06 – Ramones – Somebody Like Me.wav

Pre-gap length 0:00:00.04

Peak level 96.0 %
Track quality 100.0 %
Test CRC D8C1D3B4
Copy CRC D8C1D3B4
Track not present in AccurateRip database
Copy OK

Track 7

Filename C:\Archivos de programa\Exact Audio Copy\Output\Ramones – Subterranean Jungle\07 – Ramones – Psycho Therapy.wav

Pre-gap length 0:00:00.02

Peak level 78.7 %
Track quality 100.0 %
Test CRC 9140A8E7
Copy CRC 9140A8E7
Track not present in AccurateRip database
Copy OK

Track 8

Filename C:\Archivos de programa\Exact Audio Copy\Output\Ramones – Subterranean Jungle\08 – Ramones – Time has Come Today.wav

Pre-gap length 0:00:00.04

Peak level 81.6 %
Track quality 100.0 %
Test CRC FFE228A0
Copy CRC FFE228A0
Track not present in AccurateRip database
Copy OK

Track 9

Filename C:\Archivos de programa\Exact Audio Copy\Output\Ramones – Subterranean Jungle\09 – Ramones – My-my Kind of a Girl.wav

Pre-gap length 0:00:00.04

Peak level 81.6 %
Track quality 100.0 %
Test CRC 62547B01
Copy CRC 62547B01
Track not present in AccurateRip database
Copy OK

Track 10

Filename C:\Archivos de programa\Exact Audio Copy\Output\Ramones – Subterranean Jungle\10 – Ramones – In the Park.wav

Pre-gap length 0:00:00.04

Peak level 74.5 %
Track quality 100.0 %
Test CRC 5BF58C7C
Copy CRC 5BF58C7C
Track not present in AccurateRip database
Copy OK

Track 11

Filename C:\Archivos de programa\Exact Audio Copy\Output\Ramones – Subterranean Jungle\11 – Ramones – Time Bomb.wav

Pre-gap length 0:00:00.02

Peak level 80.6 %
Track quality 100.0 %
Test CRC 9C489078
Copy CRC 9C489078
Track not present in AccurateRip database
Copy OK

Track 12

Filename C:\Archivos de programa\Exact Audio Copy\Output\Ramones – Subterranean Jungle\12 – Ramones – Everytime I Eat Vegetables It Makes Me Think of You.wav

Pre-gap length 0:00:00.04

Peak level 87.2 %
Track quality 100.0 %
Test CRC C2633476
Copy CRC C2633476
Track not present in AccurateRip database
Copy OK

None of the tracks are present in the AccurateRip database

No errors occurred

End of status report

REM GENRE Punk
REM DATE 1983
REM DISCID 9B07DC0C
REM COMMENT “ExactAudioCopy v0.99pb3”
PERFORMER “Ramones”
TITLE “Subterranean Jungle”
FILE “01 – Ramones – Little Bit O’ Soul.wav” WAVE
TRACK 01 AUDIO
TITLE “Little Bit O’ Soul”
PERFORMER “Ramones”
PREGAP 00:00:32
INDEX 01 00:00:00
TRACK 02 AUDIO
TITLE “I Need Your Love”
PERFORMER “Ramones”
INDEX 00 02:43:15
FILE “02 – Ramones – I Need Your Love.wav” WAVE
INDEX 01 00:00:00
TRACK 03 AUDIO
TITLE “Outsider”
PERFORMER “Ramones”
INDEX 00 03:06:35
FILE “03 – Ramones – Outsider.wav” WAVE
INDEX 01 00:00:00
TRACK 04 AUDIO
TITLE “What’ D Ya Do?”
PERFORMER “Ramones”
INDEX 00 02:10:48
FILE “04 – Ramones – What’ D Ya Do .wav” WAVE
INDEX 01 00:00:00
TRACK 05 AUDIO
TITLE “Highest Trails Above”
PERFORMER “Ramones”
INDEX 00 02:24:28
FILE “05 – Ramones – Highest Trails Above.wav” WAVE
INDEX 01 00:00:00
TRACK 06 AUDIO
TITLE “Somebody Like Me”
PERFORMER “Ramones”
INDEX 00 02:09:60
FILE “06 – Ramones – Somebody Like Me.wav” WAVE
INDEX 01 00:00:00
TRACK 07 AUDIO
TITLE “Psycho Therapy”
PERFORMER “Ramones”
INDEX 00 02:33:40
FILE “07 – Ramones – Psycho Therapy.wav” WAVE
INDEX 01 00:00:00
TRACK 08 AUDIO
TITLE “Time has Come Today”
PERFORMER “Ramones”
INDEX 00 02:34:05
FILE “08 – Ramones – Time has Come Today.wav” WAVE
INDEX 01 00:00:00
TRACK 09 AUDIO
TITLE “My-my Kind of a Girl”
PERFORMER “Ramones”
INDEX 00 04:25:27
FILE “09 – Ramones – My-my Kind of a Girl.wav” WAVE
INDEX 01 00:00:00
TRACK 10 AUDIO
TITLE “In the Park”
PERFORMER “Ramones”
INDEX 00 03:31:72
FILE “10 – Ramones – In the Park.wav” WAVE
INDEX 01 00:00:00
TRACK 11 AUDIO
TITLE “Time Bomb”
PERFORMER “Ramones”
INDEX 00 02:37:05
FILE “11 – Ramones – Time Bomb.wav” WAVE
INDEX 01 00:00:00
TRACK 12 AUDIO
TITLE “Everytime I Eat Vegetables It Makes Me Think of You”
PERFORMER “Ramones”
INDEX 00 02:08:45
FILE “12 – Ramones – Everytime I Eat Vegetables It Makes Me Think of You.wav” WAVE
INDEX 01 00:00:00

Leave a Reply

Your email address will not be published. Required fields are marked *

This site uses Akismet to reduce spam. Learn how your comment data is processed.