Ramones – Subterranean Jungle (Remastered)




Artist: Ramones
Year: 1982/2002
Genre: Punk
Notes: Discogs
Add. Notes: Remastered
Cover incl.: Yes
Encoder: FLAC
Bitrate: ~1000 kBit/s (44.1 kHz/16 Bit/s)
Log & Cue incl.: Yes
Size: 424,23 MB
Password: “slam” (without ” “)


All Downloads/Hosters are compatible

Download 1
Turbobit.net
Rapidgator.net
UploadEver.com
KatFile.com
UsersDrive.com
Download 2
Turbobit.net
Rapidgator.net
UploadEver.com
KatFile.com
UsersDrive.com
Download 3
Turbobit.net
Rapidgator.net
UploadEver.com
KatFile.com
UsersDrive.com

Tracklist:

1 - Little Bit O' Soul - 2:43
2 - I Need Your Love - 3:08
3 - Outsider - 2:10
4 - What'd Ya Do? - 2:23
5 - Highest Trails Above - 2:09
6 - Somebody Like Me - 2:32
7 - Psycho Therapy - 2:35
8 - Time Has Come Today - 4:24
9 - My-My Kind Of A Girl - 3:31
10 - In The Park - 2:36
11 - Time Bomb - 2:08
12 - Everytime I Eat Vegetables It Makes Me Think Of 
You - 3:12
Bonus Tracks
13 - Indian Giver (Original Mix) - 2:45
14 - New Girl In Town - 3:33
15 - No One To Blame (Demo) - 2:24
16 - Roots Of Hatred (Demo) - 3:36
17 - Bumming Along (Demo) - 2:20
18 - Unhappy Girl (Demo) - 2:19
19 - My-My Kind Of A Girl (Acoustic Demo) - 3:10

EAC-Log, CUE-Sheed & NFO:

Click to open spoiler
EAC extraction logfile from 5. October 2005, 19:52 for CD
Ramones / Subterranean Jungle

Used drive : TOSHIBA ODD-DVD SD-M1802 Adapter: 1 ID: 1
Read mode : Secure with NO C2, accurate stream, disable cache
Read offset correction : 691
Overread into Lead-In and Lead-Out : No

Used output format : Internal WAV Routines
44.100 Hz; 16 Bit; Stereo

Other options :
Fill up missing offset samples with silence : Yes
Delete leading and trailing silent blocks : No
Installed external ASPI interface

Range status and errors
Selected range
Filename F:\mp3\Temp\subterranean.wav

Peak level 98.5 %
Range quality 100.0 %
CRC A706DE6A
Copy OK

No errors occured

End of status report

REM GENRE Punk
REM DATE 1983
REM DISCID 260C9B13
REM COMMENT “ExactAudioCopy v0.95b3”
CATALOG 0081227815721
PERFORMER “Ramones”
TITLE “Subterranean Jungle”
FILE “subterranean.wav” WAVE
TRACK 01 AUDIO
TITLE “Little Bit O’ Soul”
PERFORMER “Ramones”
ISRC USWB10201745
INDEX 01 00:00:00
TRACK 02 AUDIO
TITLE “I Need Your Love”
PERFORMER “Ramones”
ISRC USWB10201746
INDEX 01 02:43:02
TRACK 03 AUDIO
TITLE “Outsider”
PERFORMER “Ramones”
ISRC USWB10201747
INDEX 01 05:51:32
TRACK 04 AUDIO
TITLE “What’d Ya Do?”
PERFORMER “Ramones”
ISRC USWB10201748
INDEX 01 08:02:00
TRACK 05 AUDIO
TITLE “Highest Trails Above”
PERFORMER “Ramones”
ISRC USWB10201749
INDEX 01 10:25:47
TRACK 06 AUDIO
TITLE “Somebody Like Me”
PERFORMER “Ramones”
ISRC USWB10201750
INDEX 01 12:35:27
TRACK 07 AUDIO
TITLE “Psycho Therapy”
PERFORMER “Ramones”
ISRC USWB10201751
INDEX 01 15:07:37
TRACK 08 AUDIO
TITLE “Time Has Come Today”
PERFORMER “Ramones”
ISRC USWB10201752
INDEX 01 17:42:72
TRACK 09 AUDIO
TITLE “My-My Kind Of Girl”
PERFORMER “Ramones”
ISRC USWB10201753
INDEX 01 22:08:07
TRACK 10 AUDIO
TITLE “In The Park”
PERFORMER “Ramones”
ISRC USWB10201754
INDEX 01 25:39:70
TRACK 11 AUDIO
TITLE “Time Bomb”
PERFORMER “Ramones”
ISRC USWB10201755
INDEX 01 28:16:62
TRACK 12 AUDIO
TITLE “Everytime I Eat Vegetables It Makes Me Think Of You”
PERFORMER “Ramones”
ISRC USWB10201756
INDEX 01 30:25:25
TRACK 13 AUDIO
TITLE “Indian Giver (original mix)”
PERFORMER “Ramones”
ISRC USWB10201857
INDEX 00 33:31:60
INDEX 01 33:37:30
TRACK 14 AUDIO
TITLE “New Girl In Town”
PERFORMER “Ramones”
ISRC USWB10201858
INDEX 01 36:23:05
TRACK 15 AUDIO
TITLE “No One To Blame (demo)”
PERFORMER “Ramones”
ISRC USWB10201859
INDEX 00 39:52:17
INDEX 01 39:56:32
TRACK 16 AUDIO
TITLE “Roots Of Hatred (demo)”
PERFORMER “Ramones”
ISRC USWB10201860
INDEX 00 42:18:73
INDEX 01 42:20:50
TRACK 17 AUDIO
TITLE “Bumming Along (demo)”
PERFORMER “Ramones”
ISRC USWB10201861
INDEX 00 45:55:52
INDEX 01 45:57:30
TRACK 18 AUDIO
TITLE “Unhappy Girl (demo)”
PERFORMER “Ramones”
ISRC USWB10201862
INDEX 00 48:16:22
INDEX 01 48:17:32
TRACK 19 AUDIO
TITLE “My-My Kind Of Girl (acoustic demo)”
PERFORMER “Ramones”
ISRC USWB10201863
INDEX 00 50:35:60
INDEX 01 50:37:32

Leave a Reply

Your email address will not be published. Required fields are marked *

This site uses Akismet to reduce spam. Learn how your comment data is processed.