Ramones – Rocket To Russia




Artist: Ramones
Year: 1977/1999
Genre: Punk
Notes: Discogs
Add. Notes:
Encoder: FLAC
Bitrate: ~900 kBit/s (44.1 kHz/16 Bit/s)
Bin/Cue incl.: Yes
Size: 210,87 MB
Password: “slam” (without ” “)


http://www.share-online.biz/dl/NXN7EVRP9JUN

https://rapidgator.net/file/93aa3df42ffbea3e4ed75912517a1f61

https://uploadbyte.com/ycuknyzb79j4

https://uploadever.com/a9y5w2tajzfc

https://justupload.io/bis325c19rhl

Tracklist:

1 - Cretin Hop - 1:56
2 - Rockaway Beach - 2:06
3 - Here Today, Gone Tomorrow - 2:49
4 - Locket Love - 2:11
5 - I Don't Care - 1:39
6 - Sheena Is A Punk Rocker - 2:49
7 - We're A Happy Family - 2:31
8 - Teenage Lobotomy - 2:01
9 - Do You Wanna Dance? - 1:55
10 - I Wanna Be Well - 2:28
11 - I Can't Give You Anything - 2:01
12 - Ramona - 2:37
13 - Surfin' Bird - 2:37
14 - Why Is It Always This Way? - 2:15

EAC-Log, CUE-Sheed & NFO:

Click to open spoiler
Exact Audio Copy V0.99 prebeta 3 from 28. July 2007

EAC extraction logfile from 9. November 2007, 5:03

Ramones / Rocket To Russia

Used drive : HL-DT-STDVDRAM GSA-4160B Adapter: 5 ID: 1

Read mode : Secure
Utilize accurate stream : Yes
Defeat audio cache : Yes
Make use of C2 pointers : No

Read offset correction : 667
Overread into Lead-In and Lead-Out : No
Fill up missing offset samples with silence : Yes
Delete leading and trailing silent blocks : No
Null samples used in CRC calculations : Yes
Used interface : Installed external ASPI interface
Gap handling : Appended to previous track

Used output format : User Defined Encoder
Selected bitrate : 128 kBit/s
Quality : High
Add ID3 tag : No
Command line compressor : C:\Archivos de programa\Exact Audio Copy\flac.exe
Additional command line options : -8 -A tukey(0.25) -A gauss(0.1875) -b 4096 -V -T “artist=%a” -T “title=%t” -T “album=%g” -T “date=%y” -T “tracknumber=%n” -T “genre=%m” %s –sector-align

TOC of the extracted CD

Track | Start | Length | Start sector | End sector
———————————————————
1 | 0:00.00 | 1:56.00 | 0 | 8699
2 | 1:56.00 | 2:06.15 | 8700 | 18164
3 | 4:02.15 | 2:49.20 | 18165 | 30859
4 | 6:51.35 | 2:11.17 | 30860 | 40701
5 | 9:02.52 | 1:39.00 | 40702 | 48126
6 | 10:41.52 | 2:49.40 | 48127 | 60841
7 | 13:31.17 | 2:30.68 | 60842 | 72159
8 | 16:02.10 | 2:01.10 | 72160 | 81244
9 | 18:03.20 | 1:55.25 | 81245 | 89894
10 | 19:58.45 | 2:28.15 | 89895 | 101009
11 | 22:26.60 | 2:00.62 | 101010 | 110071
12 | 24:27.47 | 2:37.50 | 110072 | 121896
13 | 27:05.22 | 2:37.35 | 121897 | 133706
14 | 29:42.57 | 2:17.28 | 133707 | 144009

Track 1

Filename C:\Archivos de programa\Exact Audio Copy\Output\Ramones – Rocket To Russia\01 – Ramones – Cretin Hop.wav

Pre-gap length 0:00:02.00

Peak level 94.0 %
Track quality 100.0 %
Test CRC D65DACA7
Copy CRC D65DACA7
Copy OK

Track 2

Filename C:\Archivos de programa\Exact Audio Copy\Output\Ramones – Rocket To Russia\02 – Ramones – Rockaway Beach.wav

Peak level 81.2 %
Track quality 100.0 %
Test CRC 6A7B188D
Copy CRC 6A7B188D
Copy OK

Track 3

Filename C:\Archivos de programa\Exact Audio Copy\Output\Ramones – Rocket To Russia\03 – Ramones – Here Today, Gone Tomorrow.wav

Peak level 98.3 %
Track quality 100.0 %
Test CRC C615B904
Copy CRC C615B904
Copy OK

Track 4

Filename C:\Archivos de programa\Exact Audio Copy\Output\Ramones – Rocket To Russia\04 – Ramones – Locket Love.wav

Pre-gap length 0:00:00.40

Peak level 91.9 %
Track quality 100.0 %
Test CRC 82D86D39
Copy CRC 82D86D39
Copy OK

Track 5

Filename C:\Archivos de programa\Exact Audio Copy\Output\Ramones – Rocket To Russia\05 – Ramones – I Dont Care.wav

Peak level 91.6 %
Track quality 100.0 %
Test CRC 44B2503F
Copy CRC 44B2503F
Copy OK

Track 6

Filename C:\Archivos de programa\Exact Audio Copy\Output\Ramones – Rocket To Russia\06 – Ramones – Sheena Is A Punk Rocker.wav

Pre-gap length 0:00:00.49

Peak level 97.9 %
Track quality 100.0 %
Test CRC B2A77828
Copy CRC B2A77828
Copy OK

Track 7

Filename C:\Archivos de programa\Exact Audio Copy\Output\Ramones – Rocket To Russia\07 – Ramones – We’re A Happy Family.wav

Pre-gap length 0:00:00.69

Peak level 79.9 %
Track quality 100.0 %
Test CRC 6DCCCAB1
Copy CRC 6DCCCAB1
Copy OK

Track 8

Filename C:\Archivos de programa\Exact Audio Copy\Output\Ramones – Rocket To Russia\08 – Ramones – Teenage Lobotomy.wav

Pre-gap length 0:00:00.33

Peak level 85.7 %
Track quality 100.0 %
Test CRC 25C1BCBB
Copy CRC 25C1BCBB
Copy OK

Track 9

Filename C:\Archivos de programa\Exact Audio Copy\Output\Ramones – Rocket To Russia\09 – Ramones – Do You Wanna Dance .wav

Peak level 100.0 %
Track quality 100.0 %
Test CRC 4E439D13
Copy CRC 4E439D13
Copy OK

Track 10

Filename C:\Archivos de programa\Exact Audio Copy\Output\Ramones – Rocket To Russia\10 – Ramones – I Wanna Be Well.wav

Pre-gap length 0:00:00.73

Peak level 88.8 %
Track quality 100.0 %
Test CRC 3A4E4A70
Copy CRC 3A4E4A70
Copy OK

Track 11

Filename C:\Archivos de programa\Exact Audio Copy\Output\Ramones – Rocket To Russia\11 – Ramones – I Can’t Give You Anything.wav

Pre-gap length 0:00:00.50

Peak level 91.2 %
Track quality 100.0 %
Test CRC 1911FDDA
Copy CRC 1911FDDA
Copy OK

Track 12

Filename C:\Archivos de programa\Exact Audio Copy\Output\Ramones – Rocket To Russia\12 – Ramones – Ramona.wav

Peak level 99.9 %
Track quality 100.0 %
Test CRC 977CCF8D
Copy CRC 977CCF8D
Copy OK

Track 13

Filename C:\Archivos de programa\Exact Audio Copy\Output\Ramones – Rocket To Russia\13 – Ramones – Surfin’ Bird.wav

Peak level 99.4 %
Track quality 100.0 %
Test CRC E66B6AEF
Copy CRC E66B6AEF
Copy OK

Track 14

Filename C:\Archivos de programa\Exact Audio Copy\Output\Ramones – Rocket To Russia\14 – Ramones – Why Is It Always This Way .wav

Pre-gap length 0:00:01.13

Peak level 76.9 %
Track quality 100.0 %
Test CRC 1D1C9560
Copy CRC 1D1C9560
Copy OK

No errors occurred

End of status report

REM GENRE “Punk Rock”
REM DATE 1977
REM DISCID B007800E
REM COMMENT “ExactAudioCopy v0.99pb3”
PERFORMER “Ramones”
TITLE “Rocket To Russia”
FILE “01 – Ramones – Cretin Hop.wav” WAVE
TRACK 01 AUDIO
TITLE “Cretin Hop”
PERFORMER “Ramones”
INDEX 01 00:00:00
FILE “02 – Ramones – Rockaway Beach.wav” WAVE
TRACK 02 AUDIO
TITLE “Rockaway Beach”
PERFORMER “Ramones”
INDEX 01 00:00:00
FILE “03 – Ramones – Here Today, Gone Tomorrow.wav” WAVE
TRACK 03 AUDIO
TITLE “Here Today, Gone Tomorrow”
PERFORMER “Ramones”
INDEX 01 00:00:00
TRACK 04 AUDIO
TITLE “Locket Love”
PERFORMER “Ramones”
INDEX 00 02:48:65
FILE “04 – Ramones – Locket Love.wav” WAVE
INDEX 01 00:00:00
FILE “05 – Ramones – I Dont Care.wav” WAVE
TRACK 05 AUDIO
TITLE “I Dont Care”
PERFORMER “Ramones”
INDEX 01 00:00:00
TRACK 06 AUDIO
TITLE “Sheena Is A Punk Rocker”
PERFORMER “Ramones”
INDEX 00 01:38:38
FILE “06 – Ramones – Sheena Is A Punk Rocker.wav” WAVE
INDEX 01 00:00:00
TRACK 07 AUDIO
TITLE “We’re A Happy Family”
PERFORMER “Ramones”
INDEX 00 02:48:63
FILE “07 – Ramones – We’re A Happy Family.wav” WAVE
INDEX 01 00:00:00
TRACK 08 AUDIO
TITLE “Teenage Lobotomy”
PERFORMER “Ramones”
INDEX 00 02:30:43
FILE “08 – Ramones – Teenage Lobotomy.wav” WAVE
INDEX 01 00:00:00
FILE “09 – Ramones – Do You Wanna Dance .wav” WAVE
TRACK 09 AUDIO
TITLE “Do You Wanna Dance?”
PERFORMER “Ramones”
INDEX 01 00:00:00
TRACK 10 AUDIO
TITLE “I Wanna Be Well”
PERFORMER “Ramones”
INDEX 00 01:54:45
FILE “10 – Ramones – I Wanna Be Well.wav” WAVE
INDEX 01 00:00:00
TRACK 11 AUDIO
TITLE “I Can’t Give You Anything”
PERFORMER “Ramones”
INDEX 00 02:27:52
FILE “11 – Ramones – I Can’t Give You Anything.wav” WAVE
INDEX 01 00:00:00
FILE “12 – Ramones – Ramona.wav” WAVE
TRACK 12 AUDIO
TITLE “Ramona”
PERFORMER “Ramones”
INDEX 01 00:00:00
FILE “13 – Ramones – Surfin’ Bird.wav” WAVE
TRACK 13 AUDIO
TITLE “Surfin’ Bird”
PERFORMER “Ramones”
INDEX 01 00:00:00
TRACK 14 AUDIO
TITLE “Why Is It Always This Way?”
PERFORMER “Ramones”
INDEX 00 02:36:25
FILE “14 – Ramones – Why Is It Always This Way .wav” WAVE
INDEX 01 00:00:00

Leave a Reply

Your email address will not be published. Required fields are marked *

This site uses Akismet to reduce spam. Learn how your comment data is processed.