Ramones – Rocket To Russia (Remastered)




Artist: Ramones
Year: 1977/2001
Genre: Punk
Notes: Discogs
Add. Notes: Remastered
Encoder: FLAC
Bitrate: ~1000 kBit/s (44.1 kHz/16 Bit/s)
Bin/Cue incl.: Yes
Size: 333,45 MB
Password: “slam” (without ” “)


http://www.share-online.biz/dl/9HCJLTRPEZ6
http://www.share-online.biz/dl/9HCJLTRPEZ6

https://rapidgator.net/file/7cf2e15ce280f898215ad0a6201ad889
https://rapidgator.net/file/7cf2e15ce280f898215ad0a6201ad889

https://uploadbyte.com/xte8f7edon37
https://uploadbyte.com/xte8f7edon37

https://justupload.io/fk45y5u4mq8f
https://justupload.io/fk45y5u4mq8f

https://uploadever.com/xx3hv0ysglov
https://uploadever.com/xx3hv0ysglov

Tracklist:

1 - Cretin Hop - 1:56
2 - Rockaway Beach - 2:06
3 - Here Today, Gone Tomorrow - 2:49
4 - Locket Love - 2:11
5 - I Don't Care - 1:39
6 - Sheena Is A Punk Rocker - 2:49
7 - We're A Happy Family - 2:40
8 - Teenage Lobotomy - 2:01
9 - Do You Wanna Dance? - 1:55
10 - I Wanna Be Well - 2:28
11 - I Can't Give You Anything - 2:01
12 - Ramona - 2:38
13 - Surfin' Bird - 2:37
14 - Why Is It Always This Way? - 2:22
Bonus Tracks
15 - Needles & Pins (Early Version) - 2:24
16 - Slug (Demo) - 2:23
17 - It's A Long Way Back To Germany (U.K. B-Side) - 
2:22
18 - I Don't Care (Single Version) - 1:40
19 - Sheena Is A Punk Rocker (Single Version) - 2:48

EAC-Log, CUE-Sheed & NFO:

Click to open spoiler
EAC extraction logfile from 28. June 2005, 20:26 for CD
Ramones / Rocket To Russia

Used drive : TOSHIBA ODD-DVD SD-M1802 Adapter: 1 ID: 1
Read mode : Secure with NO C2, accurate stream, disable cache
Read offset correction : 691
Overread into Lead-In and Lead-Out : No

Used output format : Internal WAV Routines
44.100 Hz; 16 Bit; Stereo

Other options :
Fill up missing offset samples with silence : Yes
Delete leading and trailing silent blocks : No
Installed external ASPI interface

Range status and errors
Selected range
Filename F:\mp3\Temp\CDImage.wav

Peak level 97.2 %
Range quality 100.0 %
CRC EE39220E
Copy OK

No errors occured

End of status report

CATALOG 0081227430924
PERFORMER “Ramones”
TITLE “Rocket To Russia ”
FILE “CDImage.wav” WAVE
TRACK 01 AUDIO
TITLE “Cretin Hop”
PERFORMER “Ramones”
ISRC USWB19900896
INDEX 01 00:00:00
TRACK 02 AUDIO
TITLE “Rockaway Beach”
PERFORMER “Ramones”
ISRC USWB19900897
INDEX 01 01:56:25
TRACK 03 AUDIO
TITLE “Here Today, Gone Tomorrow”
PERFORMER “Ramones”
ISRC USWB19904015
INDEX 01 04:02:57
TRACK 04 AUDIO
TITLE “Locket Love”
PERFORMER “Ramones”
ISRC USWB19904016
INDEX 01 06:52:17
TRACK 05 AUDIO
TITLE “I Don’t Care”
PERFORMER “Ramones”
ISRC USWB19904017
INDEX 01 09:03:52
TRACK 06 AUDIO
TITLE “Sheena Is A Punk Rocker”
PERFORMER “Ramones”
ISRC USWB19900893
INDEX 01 10:42:72
TRACK 07 AUDIO
TITLE “We’re A Happy Family”
PERFORMER “Ramones”
ISRC USWB19900902
INDEX 01 13:32:65
TRACK 08 AUDIO
TITLE “Teenage Lobotomy”
PERFORMER “Ramones”
ISRC USWB19900902
INDEX 01 16:13:05
TRACK 09 AUDIO
TITLE “Do You Wanna Dance?”
PERFORMER “Ramones”
ISRC USWB19900889
INDEX 01 18:14:30
TRACK 10 AUDIO
TITLE “I Wanna Be Well”
PERFORMER “Ramones”
ISRC USWB19904019
INDEX 01 20:10:05
TRACK 11 AUDIO
TITLE “I Can’t Give You Anything”
PERFORMER “Ramones”
ISRC USWB19904020
INDEX 01 22:38:40
TRACK 12 AUDIO
TITLE “Ramona”
PERFORMER “Ramones”
ISRC USWB19904021
INDEX 01 24:39:57
TRACK 13 AUDIO
TITLE “Surfin’ Bird”
PERFORMER “Ramones”
ISRC USWB19904022
INDEX 01 27:17:60
TRACK 14 AUDIO
TITLE “Why Is It Always This Way?”
PERFORMER “Ramones”
ISRC USWB19904023
INDEX 01 29:55:45
TRACK 15 AUDIO
TITLE “Needles & Pins (Early Version)”
PERFORMER “Ramones”
ISRC USWB10103388
INDEX 00 32:13:02
INDEX 01 32:18:10
TRACK 16 AUDIO
TITLE “Slug (Demo)”
PERFORMER “Ramones”
ISRC USWB19904024
INDEX 00 34:39:15
INDEX 01 34:42:32
TRACK 17 AUDIO
TITLE “It’s A Long Way Back To Germany (UK B-Side)”
PERFORMER “Ramones”
ISRC USRHD0147533
INDEX 01 37:06:15
TRACK 18 AUDIO
TITLE “I Don’t Care (Single Version)”
PERFORMER “Ramones”
ISRC USWB10102794
INDEX 00 39:26:37
INDEX 01 39:28:60
TRACK 19 AUDIO
TITLE “Sheena Is A Punk Rocker (Single Version)”
PERFORMER “Ramones”
ISRC USWB10102795
INDEX 00 41:07:40
INDEX 01 41:08:72

Leave a Reply

Your email address will not be published. Required fields are marked *

This site uses Akismet to reduce spam. Learn how your comment data is processed.