Ramones – Road to ruin (Remastered)




Artist: Ramones
Year: 1978/2001
Genre: Punk
Notes: Discogs
Add. Notes: Remastered
Encoder: FLAC
Bitrate: ~1000 kBit/s (44.1 kHz/16 Bit/s)
Bin/Cue incl.: Yes
Size: 419,16 MB
Password: “slam” (without ” “)


http://www.share-online.biz/dl/FN3GKRRPFP7
https://rapidgator.net/file/3a412a2bd7da092ea088de41b3c7b3ec
https://uploadbyte.com/5qycmtb3un12
https://uploadever.com/ibqvahygx6bz

Tracklist:

1 - I Just Want To Have Something To Do - 2:41
2 - I Wanted Everything - 3:18
3 - Don't Come Close - 2:44
4 - I Don't Want You - 2:26
5 - Needles & Pins - 2:21
6 - I'm Against It - 2:07
7 - I Wanna Be Sedated - 2:29
8 - Go Mental - 2:42
9 - Questioningly - 3:21
10 - She's The One - 2:13
11 - Bad Brain - 2:25
12 - It's A Long Way Back - 2:22
Bonus Tracks
13 - I Want You Around (Ed Stasium Version) - 3:02
14 - Rock 'N' Roll High School (Ed Stasium Version) - 2:19
15 - Blitzkrieg Bop/Teenage Lobotomy/California 
Sun/Pinhead/She's The One (Live) - 11:00
16 - Come Back, She Cried A.K.A. I Walk Out (Demo) - 
2:21
17 - Yea, Yea (Demo) - 2:08

EAC-Log, CUE-Sheed & NFO:

Click to open spoiler
EAC extraction logfile from 21. June 2005, 13:17 for CD
Ramones / Road To Ruin

Used drive : TOSHIBA ODD-DVD SD-M1802 Adapter: 1 ID: 1
Read mode : Secure with NO C2, accurate stream, disable cache
Read offset correction : 691
Overread into Lead-In and Lead-Out : No

Used output format : Internal WAV Routines
44.100 Hz; 16 Bit; Stereo

Other options :
Fill up missing offset samples with silence : Yes
Delete leading and trailing silent blocks : No
Installed external ASPI interface

Range status and errors
Selected range
Filename F:\mp3\Temp\CDImage.wav

Peak level 97.2 %
Range quality 100.0 %
CRC 15374791
Copy OK

No errors occured

End of status report

CATALOG 0081227430825
PERFORMER “Ramones”
TITLE “Road To Ruin”
FILE “CDImage.wav” WAVE
TRACK 01 AUDIO
TITLE “I Just Want To Have Something To Do”
PERFORMER “Ramones”
ISRC USWB19900811
INDEX 01 00:00:00
TRACK 02 AUDIO
TITLE “I Wanted Everything”
PERFORMER “Ramones”
ISRC USWB19904026
INDEX 01 02:41:57
TRACK 03 AUDIO
TITLE “Don’t Come Close”
PERFORMER “Ramones”
ISRC USWB19904027
INDEX 01 06:00:45
TRACK 04 AUDIO
TITLE “I Don’t Want You”
PERFORMER “Ramones”
ISRC USWB19904028
INDEX 01 08:45:35
TRACK 05 AUDIO
TITLE “Needles & Pins”
PERFORMER “Ramones”
ISRC USWB19900806
INDEX 01 11:12:10
TRACK 06 AUDIO
TITLE “I’m Against It”
PERFORMER “Ramones”
ISRC USWB19900806
INDEX 01 13:33:45
TRACK 07 AUDIO
TITLE “I Wanna Be Sedated”
PERFORMER “Ramones”
ISRC USWB19900888
INDEX 01 15:41:10
TRACK 08 AUDIO
TITLE “Go Mental”
PERFORMER “Ramones”
ISRC USWB19904030
INDEX 01 18:10:57
TRACK 09 AUDIO
TITLE “Questioningly”
PERFORMER “Ramones”
ISRC USWB19904031
INDEX 01 20:53:30
TRACK 10 AUDIO
TITLE “She’s The One”
PERFORMER “Ramones”
ISRC USWB19904032
INDEX 01 24:15:22
TRACK 11 AUDIO
TITLE “Bad Brain”
PERFORMER “Ramones”
ISRC USWB19904033
INDEX 01 26:28:52
TRACK 12 AUDIO
TITLE “It’s A Long Way Back”
PERFORMER “Ramones”
ISRC USWB19904034
INDEX 01 28:53:62
TRACK 13 AUDIO
TITLE “I Want You Around (Ed Stasium Version)”
PERFORMER “Ramones”
ISRC USWB10103389
INDEX 00 31:15:42
INDEX 01 31:16:50
TRACK 14 AUDIO
TITLE “Rock ‘N’ Roll High School (Ed Stasium Version)”
PERFORMER “Ramones”
ISRC USWB10103389
INDEX 01 34:19:20
TRACK 15 AUDIO
TITLE “Blitzkrieg Bop/Teenage Lobotomy/California Sun/Pinhead/She’s The One”
PERFORMER “Ramones”
ISRC USWB10103390
INDEX 01 36:39:20
TRACK 16 AUDIO
TITLE “Come Back, She Cried A.K.A. I Walk Out (Demo)”
PERFORMER “Ramones”
ISRC USWB10103391
INDEX 01 47:39:55
TRACK 17 AUDIO
TITLE “Yea, Yea (Demo)”
PERFORMER “Ramones”
ISRC USWB19904036
INDEX 00 50:00:12
INDEX 01 50:01:15

Leave a Reply

Your email address will not be published. Required fields are marked *

This site uses Akismet to reduce spam. Learn how your comment data is processed.