Ramones – Road To Ruin (Japanese Edition)




Artist: Ramones
Year: 1978/1990
Genre: Punk
Notes: Discogs
Add. Notes: Japanese Edition
Cover incl.: Yes
Encoder: FLAC
Bitrate: ~1000 kBit/s (44.1 kHz/16 Bit/s)
Log & Cue incl.: Yes
Size: 266,56 MB
Password: “slam” (without ” “)


All Downloads/Hosters are compatible

Download 1
Turbobit.net
Rapidgator.net
UploadEver.com
JustUpload.io
UsersDrive.com
Download 2
Turbobit.net
Rapidgator.net
UploadEver.com
JustUpload.io
UsersDrive.com
Download 3
Turbobit.net
Rapidgator.net
UploadEver.com
JustUpload.io
UsersDrive.com

Tracklist:

1 - I Just Want To Have Something To Do - 2:41
2 - I Wanted Everything - 3:15
3 - Don't Come Close - 2:44
4 - I Don't Want You - 2:26
5 - Needles And Pins - 2:20
6 - I'm Against It - 2:06
7 - I Wanna Be Sedated - 2:29
8 - Go Mental - 2:42
9 - Questioningly - 3:20
10 - She's The One - 2:13
11 - Bad Brain - 2:26
12 - It's A Long Way Back - 2:19

EAC-Log, CUE-Sheed & NFO:

Click to open spoiler
Exact Audio Copy V1.0 beta 1 from 15. November 2010

EAC extraction logfile from 8. May 2011, 22:15

Ramones / Road To Ruin (WPCP-3144)

Used drive : PLEXTOR CD-R PREMIUM2 Adapter: 8 ID: 0

Read mode : Secure
Utilize accurate stream : Yes
Defeat audio cache : Yes
Make use of C2 pointers : No

Read offset correction : 30
Overread into Lead-In and Lead-Out : No
Fill up missing offset samples with silence : Yes
Delete leading and trailing silent blocks : No
Null samples used in CRC calculations : Yes
Used interface : Installed external ASPI interface

Used output format : Internal WAV Routines
Sample format : 44.100 Hz; 16 Bit; Stereo

TOC of the extracted CD

Track | Start | Length | Start sector | End sector
———————————————————
1 | 0:00.00 | 2:42.12 | 0 | 12161
2 | 2:42.12 | 3:18.70 | 12162 | 27081
3 | 6:01.07 | 2:44.70 | 27082 | 39451
4 | 8:46.02 | 2:26.58 | 39452 | 50459
5 | 11:12.60 | 2:21.40 | 50460 | 61074
6 | 13:34.25 | 2:08.05 | 61075 | 70679
7 | 15:42.30 | 2:29.57 | 70680 | 81911
8 | 18:12.12 | 2:42.70 | 81912 | 94131
9 | 20:55.07 | 3:22.20 | 94132 | 109301
10 | 24:17.27 | 2:13.35 | 109302 | 119311
11 | 26:30.62 | 2:25.23 | 119312 | 130209
12 | 28:56.10 | 2:22.12 | 130210 | 140871

Range status and errors

Selected range

Filename C:\AvaxHome.ru\1st CD pressings [Japan 1990]\1978- Road To Ruin [WPCP-3144]\Ramones – Road To Ruin (WPCP-3144).wav

Peak level 98.7 %
Extraction speed 0.5 X
Range quality 100.0 %
Test CRC B76D1A29
Copy CRC B76D1A29
Copy OK

No errors occurred

AccurateRip summary

Track 1 cannot be verified as accurate (confidence 3) [538C6790], AccurateRip returned [C35867BF]
Track 2 cannot be verified as accurate (confidence 3) [C608C09C], AccurateRip returned [52F32E17]
Track 3 cannot be verified as accurate (confidence 3) [A5E84B64], AccurateRip returned [A54B04FE]
Track 4 cannot be verified as accurate (confidence 3) [54067536], AccurateRip returned [13C2E2E0]
Track 5 cannot be verified as accurate (confidence 3) [EA5C1824], AccurateRip returned [6AC73E2C]
Track 6 cannot be verified as accurate (confidence 3) [CCA8AB62], AccurateRip returned [60E473BF]
Track 7 cannot be verified as accurate (confidence 3) [70C3FB57], AccurateRip returned [B4F9D6C0]
Track 8 cannot be verified as accurate (confidence 3) [B5C5E8AD], AccurateRip returned [3C80DA29]
Track 9 cannot be verified as accurate (confidence 3) [CFDA6BB3], AccurateRip returned [C1A203D9]
Track 10 cannot be verified as accurate (confidence 3) [F6122561], AccurateRip returned [F1BC5EE7]
Track 11 cannot be verified as accurate (confidence 3) [03B74FFC], AccurateRip returned [7E3F349E]
Track 12 cannot be verified as accurate (confidence 3) [D126E5DD], AccurateRip returned [A06D85AF]

No tracks could be verified as accurate
You may have a different pressing from the one(s) in the database

End of status report

==== Log checksum EC26A156E0EFA475048A9DD8C18BADA92D9D463F138A33DA8B33D6EDEF92B026 ====

REM GENRE “Punk Rock”
REM DATE 1978
REM DISCID AD07560C
REM COMMENT “ExactAudioCopy v1.0b1”
PERFORMER “Ramones”
TITLE “Road To Ruin (WPCP-3144)”
FILE “Ramones – Road To Ruin (WPCP-3144).flac” WAVE
TRACK 01 AUDIO
TITLE “I Just Want To Have Something To Do”
PERFORMER “Ramones”
INDEX 01 00:00:00
TRACK 02 AUDIO
TITLE “I Wanted Everything”
PERFORMER “Ramones”
INDEX 01 02:42:12
TRACK 03 AUDIO
TITLE “Don’t Come Close”
PERFORMER “Ramones”
INDEX 01 06:01:07
TRACK 04 AUDIO
TITLE “I Don’t Want You”
PERFORMER “Ramones”
INDEX 01 08:46:02
TRACK 05 AUDIO
TITLE “Needles And Pins”
PERFORMER “Ramones”
INDEX 01 11:12:60
TRACK 06 AUDIO
TITLE “I’m Against It”
PERFORMER “Ramones”
INDEX 01 13:34:25
TRACK 07 AUDIO
TITLE “I Wanna Be Sedated”
PERFORMER “Ramones”
INDEX 01 15:42:30
TRACK 08 AUDIO
TITLE “Go Mental”
PERFORMER “Ramones”
INDEX 01 18:12:12
TRACK 09 AUDIO
TITLE “Questioningly”
PERFORMER “Ramones”
INDEX 01 20:55:07
TRACK 10 AUDIO
TITLE “She’s The One”
PERFORMER “Ramones”
INDEX 01 24:17:27
TRACK 11 AUDIO
TITLE “Bad Brain”
PERFORMER “Ramones”
INDEX 01 26:30:62
TRACK 12 AUDIO
TITLE “It’s A Long Way Back”
PERFORMER “Ramones”
INDEX 00 28:55:45
INDEX 01 28:56:10

Leave a Reply

Your email address will not be published. Required fields are marked *

This site uses Akismet to reduce spam. Learn how your comment data is processed.