Ramones – Ramones




Artist: Ramones
Year: 1976/1993
Genre: Punk
Add. Notes:
Cover incl.: Yes
Encoder: FLAC
Bitrate: ~1000 kBit/s (44.1 kHz/16 Bit/s)
Log & Cue incl.: Yes
Size: 197,12 MB
Password: “slam” (without ” “)


All Downloads/Hosters are compatible

Download 1
Turbobit.net
Rapidgator.net
UploadByte.com
UploadEver.com
JustUpload.io
Download 2
Turbobit.net
Rapidgator.net
UploadByte.com
UploadEver.com
JustUpload.io
Download 3
Turbobit.net
Rapidgator.net
UploadByte.com
UploadEver.com
JustUpload.io

Tracklist:

1 - Blitzkrieg Bop - 2:14
2 - Beat On The Brat - 2:31
3 - Judy Is A Punk - 1:32
4 - I Wanna Be Your Boyfriend - 2:24
5 - Chain Saw - 1:56
6 - Now I Wanna Sniff Some Glue - 1:35
7 - I Don't Wanna Go Down To The Basement - 2:38
8 - Loudmouth - 2:14
9 - Havana Affair - 1:57
10 - Listen To My Heart - 1:58
11 - 53rd & 3rd - 2:21
12 - Let's Dance - 1:51
13 - I Don't Wanna Walk Around With You - 1:42
14 - Today Your Love, Tomorrow The World - 2:12

EAC-Log, CUE-Sheed & NFO:

Click to open spoiler
Exact Audio Copy V0.99 prebeta 3 from 28. July 2007

EAC extraction logfile from 15. November 2007, 5:17

Ramones / Ramones

Used drive : HL-DT-STDVDRAM GSA-4160B Adapter: 5 ID: 1

Read mode : Secure
Utilize accurate stream : Yes
Defeat audio cache : Yes
Make use of C2 pointers : No

Read offset correction : 667
Overread into Lead-In and Lead-Out : No
Fill up missing offset samples with silence : Yes
Delete leading and trailing silent blocks : No
Null samples used in CRC calculations : Yes
Used interface : Installed external ASPI interface
Gap handling : Appended to previous track

Used output format : User Defined Encoder
Selected bitrate : 128 kBit/s
Quality : High
Add ID3 tag : No
Command line compressor : C:\Archivos de programa\Exact Audio Copy\flac.exe
Additional command line options : -8 -A tukey(0.25) -A gauss(0.1875) -b 4096 -V -T “artist=%a” -T “title=%t” -T “album=%g” -T “date=%y” -T “tracknumber=%n” -T “genre=%m” %s –sector-align

TOC of the extracted CD

Track | Start | Length | Start sector | End sector
———————————————————
1 | 0:00.00 | 2:14.10 | 0 | 10059
2 | 2:14.10 | 2:31.67 | 10060 | 21451
3 | 4:46.02 | 1:32.33 | 21452 | 28384
4 | 6:18.35 | 2:24.22 | 28385 | 39206
5 | 8:42.57 | 1:56.53 | 39207 | 47959
6 | 10:39.35 | 1:35.25 | 47960 | 55109
7 | 12:14.60 | 2:38.25 | 55110 | 66984
8 | 14:53.10 | 2:14.57 | 66985 | 77091
9 | 17:07.67 | 1:56.55 | 77092 | 85846
10 | 19:04.47 | 1:58.20 | 85847 | 94716
11 | 21:02.67 | 2:21.00 | 94717 | 105291
12 | 23:23.67 | 1:51.70 | 105292 | 113686
13 | 25:15.62 | 1:42.63 | 113687 | 121399
14 | 26:58.50 | 2:12.67 | 121400 | 131366

Track 1

Filename C:\Archivos de programa\Exact Audio Copy\Output\Ramones – Ramones\01 – Ramones – Blitzkrieg Bop.wav

Pre-gap length 0:00:02.00

Peak level 82.4 %
Track quality 99.9 %
Test CRC E753F165
Copy CRC E753F165
Cannot be verified as accurate (confidence 1) [84E5F105], AccurateRip returned [D4278681]
Copy OK

Track 2

Filename C:\Archivos de programa\Exact Audio Copy\Output\Ramones – Ramones\02 – Ramones – Beat On The Brat.wav

Pre-gap length 0:00:01.30

Peak level 81.2 %
Track quality 100.0 %
Test CRC 7BE197F5
Copy CRC 7BE197F5
Cannot be verified as accurate (confidence 1) [DEEF34CC], AccurateRip returned [1B200362]
Copy OK

Track 3

Filename C:\Archivos de programa\Exact Audio Copy\Output\Ramones – Ramones\03 – Ramones – Judy Is A Punk.wav

Peak level 81.8 %
Track quality 100.0 %
Test CRC DB64A189
Copy CRC DB64A189
Cannot be verified as accurate (confidence 1) [1AC0D5A4], AccurateRip returned [14D01ADE]
Copy OK

Track 4

Filename C:\Archivos de programa\Exact Audio Copy\Output\Ramones – Ramones\04 – Ramones – I Wanna Be Your Boyfriend.wav

Pre-gap length 0:00:01.17

Peak level 75.9 %
Track quality 100.0 %
Test CRC 00DE1345
Copy CRC 00DE1345
Cannot be verified as accurate (confidence 1) [4962ED0A], AccurateRip returned [1F583F99]
Copy OK

Track 5

Filename C:\Archivos de programa\Exact Audio Copy\Output\Ramones – Ramones\05 – Ramones – Chain Saw.wav

Peak level 81.6 %
Track quality 100.0 %
Test CRC 4472D92E
Copy CRC 4472D92E
Cannot be verified as accurate (confidence 1) [8720E757], AccurateRip returned [8915F49E]
Copy OK

Track 6

Filename C:\Archivos de programa\Exact Audio Copy\Output\Ramones – Ramones\06 – Ramones – Now I Wanna Sniff Some Glue.wav

Pre-gap length 0:00:01.00

Peak level 73.8 %
Track quality 100.0 %
Test CRC 7C28E3B4
Copy CRC 7C28E3B4
Cannot be verified as accurate (confidence 1) [DA1375BB], AccurateRip returned [8F76CEC1]
Copy OK

Track 7

Filename C:\Archivos de programa\Exact Audio Copy\Output\Ramones – Ramones\07 – Ramones – I Don’t Wanna Go Down To The Basement.wav

Peak level 83.9 %
Track quality 100.0 %
Test CRC A4535159
Copy CRC A4535159
Cannot be verified as accurate (confidence 1) [53E2CE22], AccurateRip returned [1EF6E24C]
Copy OK

Track 8

Filename C:\Archivos de programa\Exact Audio Copy\Output\Ramones – Ramones\08 – Ramones – Loudmouth.wav

Pre-gap length 0:00:00.33

Peak level 77.3 %
Track quality 100.0 %
Test CRC 0691336B
Copy CRC 0691336B
Cannot be verified as accurate (confidence 1) [437A5F43], AccurateRip returned [A8B8128F]
Copy OK

Track 9

Filename C:\Archivos de programa\Exact Audio Copy\Output\Ramones – Ramones\09 – Ramones – Havana Affair.wav

Peak level 86.0 %
Track quality 100.0 %
Test CRC 62B0E390
Copy CRC 62B0E390
Cannot be verified as accurate (confidence 1) [97221F46], AccurateRip returned [A30F088C]
Copy OK

Track 10

Filename C:\Archivos de programa\Exact Audio Copy\Output\Ramones – Ramones\10 – Ramones – Listen To My Heart.wav

Pre-gap length 0:00:00.26

Peak level 79.2 %
Track quality 100.0 %
Test CRC C9998476
Copy CRC C9998476
Cannot be verified as accurate (confidence 1) [C5AB58E0], AccurateRip returned [3F94B008]
Copy OK

Track 11

Filename C:\Archivos de programa\Exact Audio Copy\Output\Ramones – Ramones\11 – Ramones – 53rd & 3rd.wav

Pre-gap length 0:00:00.46

Peak level 82.4 %
Track quality 100.0 %
Test CRC E5AF34A7
Copy CRC E5AF34A7
Cannot be verified as accurate (confidence 1) [78F3C3EA], AccurateRip returned [A671E5FC]
Copy OK

Track 12

Filename C:\Archivos de programa\Exact Audio Copy\Output\Ramones – Ramones\12 – Ramones – Let’s Dance.wav

Pre-gap length 0:00:01.13

Peak level 97.4 %
Track quality 99.9 %
Test CRC BE6519EA
Copy CRC BE6519EA
Cannot be verified as accurate (confidence 1) [C1D673FF], AccurateRip returned [4D1A41CE]
Copy OK

Track 13

Filename C:\Archivos de programa\Exact Audio Copy\Output\Ramones – Ramones\13 – Ramones – I Don’t Wanna Walk Around With You.wav

Peak level 75.5 %
Track quality 100.0 %
Test CRC 5BC1D6B1
Copy CRC 5BC1D6B1
Cannot be verified as accurate (confidence 1) [F8D25878], AccurateRip returned [8355FBE8]
Copy OK

Track 14

Filename C:\Archivos de programa\Exact Audio Copy\Output\Ramones – Ramones\14 – Ramones – Tody Your Love, Tomorrow The World.wav

Peak level 82.4 %
Track quality 100.0 %
Test CRC 96A8C9BD
Copy CRC 96A8C9BD
Cannot be verified as accurate (confidence 1) [D391D0F5], AccurateRip returned [1153A186]
Copy OK

No tracks could be verified as accurate
You may have a different pressing from the one(s) in the database

No errors occurred

End of status report

REM DISCID AB06D70E
REM COMMENT “ExactAudioCopy v0.99pb3”
PERFORMER “Ramones”
TITLE “Ramones”
FILE “01 – Ramones – Blitzkrieg Bop.wav” WAVE
TRACK 01 AUDIO
TITLE “Blitzkrieg Bop”
PERFORMER “Ramones”
INDEX 01 00:00:00
TRACK 02 AUDIO
TITLE “Beat On The Brat”
PERFORMER “Ramones”
INDEX 00 02:12:62
FILE “02 – Ramones – Beat On The Brat.wav” WAVE
INDEX 01 00:00:00
FILE “03 – Ramones – Judy Is A Punk.wav” WAVE
TRACK 03 AUDIO
TITLE “Judy Is A Punk”
PERFORMER “Ramones”
INDEX 01 00:00:00
TRACK 04 AUDIO
TITLE “I Wanna Be Your Boyfriend”
PERFORMER “Ramones”
INDEX 00 01:31:20
FILE “04 – Ramones – I Wanna Be Your Boyfriend.wav” WAVE
INDEX 01 00:00:00
FILE “05 – Ramones – Chain Saw.wav” WAVE
TRACK 05 AUDIO
TITLE “Chain Saw”
PERFORMER “Ramones”
INDEX 01 00:00:00
TRACK 06 AUDIO
TITLE “Now I Wanna Sniff Some Glue”
PERFORMER “Ramones”
INDEX 00 01:55:53
FILE “06 – Ramones – Now I Wanna Sniff Some Glue.wav” WAVE
INDEX 01 00:00:00
FILE “07 – Ramones – I Don’t Wanna Go Down To The Basement.wav” WAVE
TRACK 07 AUDIO
TITLE “I Don’t Wanna Go Down To The Basement”
PERFORMER “Ramones”
INDEX 01 00:00:00
TRACK 08 AUDIO
TITLE “Loudmouth”
PERFORMER “Ramones”
INDEX 00 02:38:00
FILE “08 – Ramones – Loudmouth.wav” WAVE
INDEX 01 00:00:00
FILE “09 – Ramones – Havana Affair.wav” WAVE
TRACK 09 AUDIO
TITLE “Havana Affair”
PERFORMER “Ramones”
INDEX 01 00:00:00
TRACK 10 AUDIO
TITLE “Listen To My Heart”
PERFORMER “Ramones”
INDEX 00 01:56:35
FILE “10 – Ramones – Listen To My Heart.wav” WAVE
INDEX 01 00:00:00
TRACK 11 AUDIO
TITLE “53rd & 3rd”
PERFORMER “Ramones”
INDEX 00 01:57:60
FILE “11 – Ramones – 53rd & 3rd.wav” WAVE
INDEX 01 00:00:00
TRACK 12 AUDIO
TITLE “Let’s Dance”
PERFORMER “Ramones”
INDEX 00 02:19:65
FILE “12 – Ramones – Let’s Dance.wav” WAVE
INDEX 01 00:00:00
FILE “13 – Ramones – I Don’t Wanna Walk Around With You.wav” WAVE
TRACK 13 AUDIO
TITLE “I Don’t Wanna Walk Around With You”
PERFORMER “Ramones”
INDEX 01 00:00:00
FILE “14 – Ramones – Tody Your Love, Tomorrow The World.wav” WAVE
TRACK 14 AUDIO
TITLE “Tody Your Love, Tomorrow The World”
PERFORMER “Ramones”
INDEX 01 00:00:00

Leave a Reply

Your email address will not be published. Required fields are marked *

This site uses Akismet to reduce spam. Learn how your comment data is processed.