Ramones – Ramones (Remastered)




Artist: Ramones
Year: 1976/2001
Genre: Punk
Notes: Discogs
Add. Notes: Remastered
Cover incl.: Yes
Encoder: FLAC
Bitrate: ~1000 kBit/s (44.1 kHz/16 Bit/s)
Log & Cue incl.: Yes
Size: 355,34 MB
Password: “slam” (without ” “)


All Downloads/Hosters are compatible

Download 1
Turbobit.net
Rapidgator.net
UploadEver.com
JustUpload.io
HexUpload.net
Download 2
Turbobit.net
Rapidgator.net
UploadEver.com
JustUpload.io
HexUpload.net
Download 3
Turbobit.net
Rapidgator.net
UploadEver.com
JustUpload.io
HexUpload.net

Tracklist:

1 - Blitzkrieg Bop - 2:13
2 - Beat On The Brat - 2:32
3 - Judy Is A Punk - 1:32
4 - I Wanna Be Your Boyfriend - 2:24
5 - Chain Saw - 1:56
6 - Now I Wanna Sniff Some Glue - 1:36
7 - I Don't Want To Go Down To The Basement - 2:40
8 - Loudmouth - 2:15
9 - Havana Affair - 1:57
10 - Listen To My Heart - 1:58
11 - 53rd & 3rd - 2:21
12 - Let's Dance - 1:52
13 - I Don't Want To Walk Around With You - 1:43
14 - Today Your Love, Tomorrow The World - 2:17
Bonus Tracks
15 - I Wanna Be Your Boyfriend (Demo) - 3:02
16 - Judy Is A Punk (Demo) - 1:36
17 - I Don't Care (Demo) - 1:55
18 - I Can't Be (Demo) - 1:56
19 - Now I Wanna Sniff Some Glue (Demo) - 1:42
20 - I Don't Wanna Be Learned / I Don't Wanna Be Tamed 
(Demo) - 1:05
21 - You Should Never Have Opened That Door (Demo) - 
1:54
22 - Blitzkreig Bop (Single Version) - 2:12

EAC-Log, CUE-Sheed & NFO:

Click to open spoiler
EAC extraction logfile from 18. August 2005, 8:34 for CD
Ramones / Ramones

Used drive : TOSHIBA ODD-DVD SD-M1802 Adapter: 1 ID: 1
Read mode : Secure with NO C2, accurate stream, disable cache
Read offset correction : 691
Overread into Lead-In and Lead-Out : No

Used output format : Internal WAV Routines
44.100 Hz; 16 Bit; Stereo

Other options :
Fill up missing offset samples with silence : Yes
Delete leading and trailing silent blocks : No
Installed external ASPI interface

Range status and errors
Selected range
Filename F:\mp3\Temp\CDImage.wav

Peak level 99.2 %
Range quality 100.0 %
CRC 3EB7386A
Copy OK

No errors occured

End of status report

CATALOG 0081227430627
PERFORMER “Ramones”
TITLE “Ramones”
FILE “CDImage.wav” WAVE
TRACK 01 AUDIO
TITLE “Blitzkrieg Bop”
PERFORMER “Ramones”
ISRC USWB19900895
INDEX 01 00:00:00
TRACK 02 AUDIO
TITLE “Beat On The Brat”
PERFORMER “Ramones”
ISRC USWB19900892
INDEX 01 02:14:07
TRACK 03 AUDIO
TITLE “Judy Is A Punk”
PERFORMER “Ramones”
ISRC USWB10101555
INDEX 01 04:47:00
TRACK 04 AUDIO
TITLE “I Wanna Be Your Boyfriend”
PERFORMER “Ramones”
ISRC USWB19900899
INDEX 01 06:19:37
TRACK 05 AUDIO
TITLE “Chain Saw”
PERFORMER “Ramones”
ISRC USWB10101556
INDEX 01 08:44:12
TRACK 06 AUDIO
TITLE “Now I Wanna Sniff Some Glue”
PERFORMER “Ramones”
ISRC USWB10101557
INDEX 01 10:40:67
TRACK 07 AUDIO
TITLE “I Don’t Wanna Go Down To The Basement”
PERFORMER “Ramones”
ISRC USWB10101558
INDEX 01 12:17:12
TRACK 08 AUDIO
TITLE “Loudmouth”
PERFORMER “Ramones”
ISRC USWB10101559
INDEX 01 14:57:30
TRACK 09 AUDIO
TITLE “Havana Affair”
PERFORMER “Ramones”
ISRC USWB10101560
INDEX 01 17:12:35
TRACK 10 AUDIO
TITLE “Listen To My Heart”
PERFORMER “Ramones”
ISRC USWB10101561
INDEX 01 19:09:37
TRACK 11 AUDIO
TITLE “53rd & 3rd”
PERFORMER “Ramones”
ISRC USWB10101562
INDEX 01 21:08:17
TRACK 12 AUDIO
TITLE “Let’s Dance”
PERFORMER “Ramones”
ISRC USWB10101563
INDEX 01 23:29:52
TRACK 13 AUDIO
TITLE “I Don’t Wanna Walk Around With You”
PERFORMER “Ramones”
ISRC USWB10101564
INDEX 01 25:21:60
TRACK 14 AUDIO
TITLE “Today Your Love, Tomorrow The World”
PERFORMER “Ramones”
ISRC USWB10101565
INDEX 01 27:05:07
TRACK 15 AUDIO
TITLE “I Wanna Be Your Boyfriend (demo)”
PERFORMER “Ramones”
ISRC USRHD0145952
INDEX 00 29:18:20
INDEX 01 29:22:37
TRACK 16 AUDIO
TITLE “Judy Is a Punk (demo)”
PERFORMER “Ramones”
ISRC USRHD0145953
INDEX 00 32:21:73
INDEX 01 32:24:45
TRACK 17 AUDIO
TITLE “I Don’t Care (demo)”
PERFORMER “Ramones”
ISRC USWB10103408
INDEX 01 34:01:40
TRACK 18 AUDIO
TITLE “I Can’t Be (demo)”
PERFORMER “Ramones”
ISRC USWB10101855
INDEX 00 35:55:27
INDEX 01 35:56:65
TRACK 19 AUDIO
TITLE “Now I Wanna Sniff Some Glue (demo)”
PERFORMER “Ramones”
ISRC USWB10103409
INDEX 00 37:51:35
INDEX 01 37:53:32
TRACK 20 AUDIO
TITLE “I Don’t Wanna Be Learned I Don’t Wanna Be Tamed (demo)”
PERFORMER “Ramones”
ISRC USWB10101845
INDEX 00 39:33:37
INDEX 01 39:35:35
TRACK 21 AUDIO
TITLE “You Should Never Have Opened That Door (demo)”
PERFORMER “Ramones”
ISRC USWB10103410
INDEX 00 40:39:00
INDEX 01 40:40:37
TRACK 22 AUDIO
TITLE “Blitzkeig Bop (single version)”
PERFORMER “Ramones”
ISRC USWB10102793
INDEX 00 42:33:35
INDEX 01 42:34:47

Leave a Reply

Your email address will not be published. Required fields are marked *

This site uses Akismet to reduce spam. Learn how your comment data is processed.