Ramones – Pleasant Dreams




Artist: Ramones
Year: 1981/1994
Genre: Punk
Notes: Discogs
Add. Notes:
Cover incl.: Yes
Encoder: FLAC
Bitrate: ~1000 kBit/s (44.1 kHz/16 Bit/s)
Log & Cue incl.: Yes
Size: 261,34 MB
Password: “slam” (without ” “)


All Downloads/Hosters are compatible

Download 1
Turbobit.net
Rapidgator.net
UploadEver.com
KatFile.com
UsersDrive.com
Download 2
Turbobit.net
Rapidgator.net
UploadEver.com
KatFile.com
UsersDrive.com
Download 3
Turbobit.net
Rapidgator.net
UploadEver.com
KatFile.com
UsersDrive.com

Tracklist:

1 - We Want The Airwaves - 3:22
2 - All's Quiet On The Eastern Front - 2:14
3 - The KKK Took My Baby Away - 2:32
4 - Don't Go - 2:48
5 - You Sound Like You're Sick - 2:42
6 - It's Not My Place (In The 9 To 5 World) - 3:24
7 - She's A Sensation - 3:29
8 - 7-11 - 3:38
9 - You Didn't Mean Anything To Me - 3:00
10 - Come On Now - 2:33
11 - This Business Is Killing Me - 2:41
12 - Sitting In My Room - 2:30

EAC-Log, CUE-Sheed & NFO:

Click to open spoiler
Exact Audio Copy V0.99 prebeta 3 from 28. July 2007

EAC extraction logfile from 9. November 2007, 4:03

Ramones / Pleasant Dreams

Used drive : HL-DT-STDVDRAM GSA-4160B Adapter: 5 ID: 1

Read mode : Secure
Utilize accurate stream : Yes
Defeat audio cache : Yes
Make use of C2 pointers : No

Read offset correction : 667
Overread into Lead-In and Lead-Out : No
Fill up missing offset samples with silence : Yes
Delete leading and trailing silent blocks : No
Null samples used in CRC calculations : Yes
Used interface : Installed external ASPI interface
Gap handling : Appended to previous track

Used output format : User Defined Encoder
Selected bitrate : 128 kBit/s
Quality : High
Add ID3 tag : No
Command line compressor : C:\Archivos de programa\Exact Audio Copy\flac.exe
Additional command line options : -8 -A tukey(0.25) -A gauss(0.1875) -b 4096 -V -T “artist=%a” -T “title=%t” -T “album=%g” -T “date=%y” -T “tracknumber=%n” -T “genre=%m” %s –sector-align

TOC of the extracted CD

Track | Start | Length | Start sector | End sector
———————————————————
1 | 0:00.32 | 3:22.13 | 32 | 15194
2 | 3:22.45 | 2:14.57 | 15195 | 25301
3 | 5:37.27 | 2:32.15 | 25302 | 36716
4 | 8:09.42 | 2:48.60 | 36717 | 49376
5 | 10:58.27 | 2:42.68 | 49377 | 61594
6 | 13:41.20 | 3:24.37 | 61595 | 76931
7 | 17:05.57 | 3:29.60 | 76932 | 92666
8 | 20:35.42 | 3:38.38 | 92667 | 109054
9 | 24:14.05 | 3:00.15 | 109055 | 122569
10 | 27:14.20 | 2:33.42 | 122570 | 134086
11 | 29:47.62 | 2:41.60 | 134087 | 146221
12 | 32:29.47 | 2:30.58 | 146222 | 157529

Track 1

Filename C:\Archivos de programa\Exact Audio Copy\Output\Ramones – Pleasant Dreams\01 – Ramones – We Want The Airwaves.wav

Pre-gap length 0:00:02.42

Peak level 99.9 %
Track quality 100.0 %
Test CRC 2C5BC6C3
Copy CRC 2C5BC6C3
Copy OK

Track 2

Filename C:\Archivos de programa\Exact Audio Copy\Output\Ramones – Pleasant Dreams\02 – Ramones – All’s Quiet On The Eastern Fron.wav

Pre-gap length 0:00:01.42

Peak level 100.0 %
Track quality 100.0 %
Test CRC 69E9E2D6
Copy CRC 69E9E2D6
Copy OK

Track 3

Filename C:\Archivos de programa\Exact Audio Copy\Output\Ramones – Pleasant Dreams\03 – Ramones – The KKK Took My Baby Away.wav

Pre-gap length 0:00:02.85

Peak level 100.0 %
Track quality 100.0 %
Test CRC 7EDBD322
Copy CRC 7EDBD322
Copy OK

Track 4

Filename C:\Archivos de programa\Exact Audio Copy\Output\Ramones – Pleasant Dreams\04 – Ramones – Don’t Go.wav

Pre-gap length 0:00:01.58

Peak level 100.0 %
Track quality 100.0 %
Test CRC 1C6B0307
Copy CRC 1C6B0307
Copy OK

Track 5

Filename C:\Archivos de programa\Exact Audio Copy\Output\Ramones – Pleasant Dreams\05 – Ramones – You Sound Like You’re Sick.wav

Pre-gap length 0:00:02.89

Peak level 95.2 %
Track quality 100.0 %
Test CRC D4E83B2E
Copy CRC D4E83B2E
Copy OK

Track 6

Filename C:\Archivos de programa\Exact Audio Copy\Output\Ramones – Pleasant Dreams\06 – Ramones – It’s Not My Place (In The 9 To.wav

Pre-gap length 0:00:02.53

Peak level 95.0 %
Track quality 100.0 %
Test CRC 5BF39030
Copy CRC 5BF39030
Copy OK

Track 7

Filename C:\Archivos de programa\Exact Audio Copy\Output\Ramones – Pleasant Dreams\07 – Ramones – She’s A Sensation.wav

Pre-gap length 0:00:01.29

Peak level 94.0 %
Track quality 100.0 %
Test CRC DDC049A2
Copy CRC DDC049A2
Copy OK

Track 8

Filename C:\Archivos de programa\Exact Audio Copy\Output\Ramones – Pleasant Dreams\08 – Ramones – 7-11.wav

Pre-gap length 0:00:03.92

Peak level 92.8 %
Track quality 99.9 %
Test CRC 33C54A8B
Copy CRC 33C54A8B
Copy OK

Track 9

Filename C:\Archivos de programa\Exact Audio Copy\Output\Ramones – Pleasant Dreams\09 – Ramones – You Didn’t Mean Anything To Me.wav

Pre-gap length 0:00:04.86

Peak level 93.5 %
Track quality 100.0 %
Test CRC 5508702C
Copy CRC 5508702C
Copy OK

Track 10

Filename C:\Archivos de programa\Exact Audio Copy\Output\Ramones – Pleasant Dreams\10 – Ramones – Come On Now.wav

Peak level 94.7 %
Track quality 100.0 %
Test CRC 66C76E81
Copy CRC 66C76E81
Copy OK

Track 11

Filename C:\Archivos de programa\Exact Audio Copy\Output\Ramones – Pleasant Dreams\11 – Ramones – This Business Is Killing Me.wav

Pre-gap length 0:00:02.58

Peak level 93.5 %
Track quality 100.0 %
Test CRC A20A1842
Copy CRC A20A1842
Copy OK

Track 12

Filename C:\Archivos de programa\Exact Audio Copy\Output\Ramones – Pleasant Dreams\12 – Ramones – Sitting In My Room.wav

Pre-gap length 0:00:03.02

Peak level 94.9 %
Track quality 99.9 %
Test CRC C0C443D2
Copy CRC C0C443D2
Copy OK

No errors occurred

End of status report

REM GENRE Punk
REM DATE 1981
REM DISCID 9E08340C
REM COMMENT “ExactAudioCopy v0.99pb3”
PERFORMER “Ramones”
TITLE “Pleasant Dreams”
FILE “01 – Ramones – We Want The Airwaves.wav” WAVE
TRACK 01 AUDIO
TITLE “We Want The Airwaves”
PERFORMER “Ramones”
PREGAP 00:00:32
INDEX 01 00:00:00
TRACK 02 AUDIO
TITLE “All’s Quiet On The Eastern Fron”
PERFORMER “Ramones”
INDEX 00 03:20:56
FILE “02 – Ramones – All’s Quiet On The Eastern Fron.wav” WAVE
INDEX 01 00:00:00
TRACK 03 AUDIO
TITLE “The KKK Took My Baby Away”
PERFORMER “Ramones”
INDEX 00 02:11:68
FILE “03 – Ramones – The KKK Took My Baby Away.wav” WAVE
INDEX 01 00:00:00
TRACK 04 AUDIO
TITLE “Don’t Go”
PERFORMER “Ramones”
INDEX 00 02:30:46
FILE “04 – Ramones – Don’t Go.wav” WAVE
INDEX 01 00:00:00
TRACK 05 AUDIO
TITLE “You Sound Like You’re Sick”
PERFORMER “Ramones”
INDEX 00 02:45:68
FILE “05 – Ramones – You Sound Like You’re Sick.wav” WAVE
INDEX 01 00:00:00
TRACK 06 AUDIO
TITLE “It’s Not My Place (In The 9 To ”
PERFORMER “Ramones”
INDEX 00 02:40:28
FILE “06 – Ramones – It’s Not My Place (In The 9 To.wav” WAVE
INDEX 01 00:00:00
TRACK 07 AUDIO
TITLE “She’s A Sensation”
PERFORMER “Ramones”
INDEX 00 03:23:15
FILE “07 – Ramones – She’s A Sensation.wav” WAVE
INDEX 01 00:00:00
TRACK 08 AUDIO
TITLE “7-11”
PERFORMER “Ramones”
INDEX 00 03:25:66
FILE “08 – Ramones – 7-11.wav” WAVE
INDEX 01 00:00:00
TRACK 09 AUDIO
TITLE “You Didn’t Mean Anything To Me”
PERFORMER “Ramones”
INDEX 00 03:33:48
FILE “09 – Ramones – You Didn’t Mean Anything To Me.wav” WAVE
INDEX 01 00:00:00
FILE “10 – Ramones – Come On Now.wav” WAVE
TRACK 10 AUDIO
TITLE “Come On Now”
PERFORMER “Ramones”
INDEX 01 00:00:00
TRACK 11 AUDIO
TITLE “This Business Is Killing Me”
PERFORMER “Ramones”
INDEX 00 02:30:73
FILE “11 – Ramones – This Business Is Killing Me.wav” WAVE
INDEX 01 00:00:00
TRACK 12 AUDIO
TITLE “Sitting In My Room”
PERFORMER “Ramones”
INDEX 00 02:38:58
FILE “12 – Ramones – Sitting In My Room.wav” WAVE
INDEX 01 00:00:00

Leave a Reply

Your email address will not be published. Required fields are marked *

This site uses Akismet to reduce spam. Learn how your comment data is processed.