Ramones – Pleasant dreams (Remastered)




Artist: Ramones
Year: 1981/2002
Genre: Punk
Notes: Discogs
Add. Notes: Remastered
Encoder: FLAC
Bitrate: ~1000 kBit/s (44.1 kHz/16 Bit/s)
Bin/Cue incl.: Yes
Size: 434,85 MB
Password: “slam” (without ” “)


http://www.share-online.biz/dl/5OD8EVRP50ZX

https://rapidgator.net/file/37b415ac139e5a2d69d14799ae77071d

https://uploadbyte.com/jj1qdywsdi7f

https://uploadever.com/sz3eatwkunqz

https://justupload.io/ix3finsm0rd7

Tracklist:

1 - We Want The Airwaves - 3:21
2 - All's Quiet On The Eastern Front - 2:13
3 - The KKK Took My Baby Away - 2:32
4 - Don't Go - 2:48
5 - You Sound Like You're Sick - 2:42
6 - It's Not My Place (In The 9 To 5 World) - 3:23
7 - She's A Sensation - 3:29
8 - 7-11 - 3:35
9 - You Didn't Mean Anything To Me - 3:00
10 - Come On Now - 2:33
11 - This Business Is Killing Me - 2:41
12 - Sitting In My Room - 2:37
Bonus Tracks:
13 - Touring (1981 Version) - 2:49
14 - I Can't Get You Out Of My Mind - 3:24
15 - Chop Suey (Alternate Version) - 3:32
16 - Sleeping Troubles (Demo) - 2:07
17 - Kicks To Try (Demo) - 2:09
18 - I'm Not An Answer (Demo) - 2:55
19 - Stares In This Town (Demo) - 2:26

EAC-Log, CUE-Sheed & NFO:

Click to open spoiler
EAC extraction logfile from 10. July 2005, 23:18 for CD
Ramones / Pleasant Dreams

Used drive : TOSHIBA ODD-DVD SD-M1802 Adapter: 1 ID: 1
Read mode : Secure with NO C2, accurate stream, disable cache
Read offset correction : 691
Overread into Lead-In and Lead-Out : No

Used output format : Internal WAV Routines
44.100 Hz; 16 Bit; Stereo

Other options :
Fill up missing offset samples with silence : Yes
Delete leading and trailing silent blocks : No
Installed external ASPI interface

Range status and errors
Selected range
Filename F:\mp3\Temp\CDImage.wav

Peak level 98.8 %
Range quality 100.0 %
CRC 99EF4198
Copy OK

No errors occured

End of status report

CATALOG 0081227815622
PERFORMER “Ramones”
TITLE “Pleasant Dreams”
FILE “CDImage.wav” WAVE
TRACK 01 AUDIO
TITLE “We Want The Airwaves”
PERFORMER “Ramones”
ISRC USWB10201733
INDEX 01 00:00:00
TRACK 02 AUDIO
TITLE “All’s Quiet On The Eastern Front”
PERFORMER “Ramones”
ISRC USWB10201734
INDEX 01 03:22:42
TRACK 03 AUDIO
TITLE “The KKK Took My Baby Away”
PERFORMER “Ramones”
ISRC USWB10201735
INDEX 01 05:36:27
TRACK 04 AUDIO
TITLE “Don’t Go”
PERFORMER “Ramones”
ISRC USWB10201736
INDEX 01 08:08:30
TRACK 05 AUDIO
TITLE “You Sound Like You’re Sick”
PERFORMER “Ramones”
ISRC USWB10201737
INDEX 00 10:54:55
INDEX 01 10:56:57
TRACK 06 AUDIO
TITLE “It’s Not My Place (In The 9 To 5 World)”
PERFORMER “Ramones”
ISRC USWB10201738
INDEX 01 13:39:32
TRACK 07 AUDIO
TITLE “She’s A Sensation”
PERFORMER “Ramones”
ISRC USWB10201739
INDEX 01 17:02:60
TRACK 08 AUDIO
TITLE “7-11”
PERFORMER “Ramones”
ISRC USWB10201740
INDEX 00 20:29:55
INDEX 01 20:32:10
TRACK 09 AUDIO
TITLE “You Didn’t Mean Anything To Me”
PERFORMER “Ramones”
ISRC USWB10201741
INDEX 00 24:06:05
INDEX 01 24:07:52
TRACK 10 AUDIO
TITLE “Come On Now”
PERFORMER “Ramones”
ISRC USWB10201742
INDEX 01 27:07:52
TRACK 11 AUDIO
TITLE “This Business Is Killing Me”
PERFORMER “Ramones”
ISRC USWB10201743
INDEX 00 29:40:02
INDEX 01 29:41:10
TRACK 12 AUDIO
TITLE “Sitting In My Room”
PERFORMER “Ramones”
ISRC USWB10201744
INDEX 00 32:20:62
INDEX 01 32:22:57
TRACK 13 AUDIO
TITLE “Touring (1981 Version) (Bonus Track)”
PERFORMER “Ramones”
ISRC USWB10201850
INDEX 00 34:54:30
INDEX 01 35:00:00
TRACK 14 AUDIO
TITLE “I Can’t Get You Out Of My Mind (Bonus Track)”
PERFORMER “Ramones”
ISRC USWB10201851
INDEX 00 37:47:55
INDEX 01 37:49:55
TRACK 15 AUDIO
TITLE “Chop Suey (Alternate Version) (Bonus Track)”
PERFORMER “Ramones”
ISRC USWB10201852
INDEX 00 41:13:02
INDEX 01 41:14:45
TRACK 16 AUDIO
TITLE “Sleeping Troubles (Demo) (Bonus Track)”
PERFORMER “Ramones”
ISRC USWB10201853
INDEX 01 44:46:65
TRACK 17 AUDIO
TITLE “Kicks To Try (Demo) (Bonus Track)”
PERFORMER “Ramones”
ISRC USWB10201854
INDEX 00 46:52:70
INDEX 01 46:53:72
TRACK 18 AUDIO
TITLE “I’m Not An Answer (Demo) (Bonus Track)”
PERFORMER “Ramones”
ISRC USWB10201855
INDEX 00 49:02:30
INDEX 01 49:03:60
TRACK 19 AUDIO
TITLE “Stares In This Town (Demo) (Bonus Track)”
PERFORMER “Ramones”
ISRC USWB10201856
INDEX 00 51:57:07
INDEX 01 51:59:17

Leave a Reply

Your email address will not be published. Required fields are marked *

This site uses Akismet to reduce spam. Learn how your comment data is processed.