Ramones – Pleasant Dreams (Japanese Edition)




No Cover available

Artist: Ramones
Year: 1981/1990
Genre: Punk
Notes: Discogs
Add. Notes: Japanese Edition
Watch Songs on: YouTube
Cover incl.: Yes
Encoder: FLAC
Bitrate: ~1000 kBit/s (44.1 kHz/16 Bit/s)
Log & Cue incl.: Yes
Size: 284,4 MB
Password: “slam” (without ” “)


All Downloads/Hosters are compatible

Download 1
KatFile.com
Turbobit.net
FileFactory.com
Rapidgator.net
Download 2
KatFile.com
Turbobit.net
FileFactory.com
Rapidgator.net

Tracklist:

1 - We Want The Airwaves - 3:23
2 - All's Quiet On The Eastern Front - 2:15
3 - The KKK Took My Baby Away - 2:32
4 - Don't Go - 2:49
5 - You Sound Like You're Sick - 2:43
6 - It's Not My Place (In The 9 To 5 World) - 3:26
7 - She's A Sensation - 3:30
8 - 7-11 - 3:40
9 - You Didn't Mean Anything To Me - 3:00
10 - Come On Now - 2:34
11 - This Business Is Killing Me - 2:42
12 - Sitting In My Room - 2:32

EAC-Log, CUE-Sheed & NFO:

Click to open spoiler
Exact Audio Copy V1.0 beta 1 from 15. November 2010

EAC extraction logfile from 8. May 2011, 23:15

Ramones / Pleasant Dreams (WPCP-3146)

Used drive : PLEXTOR CD-R PREMIUM2 Adapter: 8 ID: 0

Read mode : Secure
Utilize accurate stream : Yes
Defeat audio cache : Yes
Make use of C2 pointers : No

Read offset correction : 30
Overread into Lead-In and Lead-Out : No
Fill up missing offset samples with silence : Yes
Delete leading and trailing silent blocks : No
Null samples used in CRC calculations : Yes
Used interface : Installed external ASPI interface

Used output format : Internal WAV Routines
Sample format : 44.100 Hz; 16 Bit; Stereo

TOC of the extracted CD

Track | Start | Length | Start sector | End sector
———————————————————
1 | 0:00.00 | 3:22.50 | 0 | 15199
2 | 3:22.50 | 2:14.55 | 15200 | 25304
3 | 5:37.30 | 2:32.15 | 25305 | 36719
4 | 8:09.45 | 2:48.60 | 36720 | 49379
5 | 10:58.30 | 2:43.27 | 49380 | 61631
6 | 13:41.57 | 3:25.45 | 61632 | 77051
7 | 17:07.27 | 3:29.58 | 77052 | 92784
8 | 20:37.10 | 3:39.50 | 92785 | 109259
9 | 24:16.60 | 3:00.10 | 109260 | 122769
10 | 27:16.70 | 2:33.47 | 122770 | 134291
11 | 29:50.42 | 2:41.60 | 134292 | 146426
12 | 32:32.27 | 2:32.08 | 146427 | 157834

Range status and errors

Selected range

Filename C:\AvaxHome.ru\1st CD pressings [Japan 1990]\1981- Pleasant Dreams [WPCP-3146]\Ramones – Pleasant Dreams (WPCP-3146).wav

Peak level 100.0 %
Extraction speed 0.5 X
Range quality 100.0 %
Test CRC C6057836
Copy CRC C6057836
Copy OK

No errors occurred

AccurateRip summary

Track 1 accurately ripped (confidence 3) [3F6E8360]
Track 2 accurately ripped (confidence 3) [A6D0B88C]
Track 3 accurately ripped (confidence 3) [A3D80714]
Track 4 accurately ripped (confidence 3) [493A6C21]
Track 5 accurately ripped (confidence 3) [75C7F42E]
Track 6 accurately ripped (confidence 3) [9490BA91]
Track 7 accurately ripped (confidence 3) [47C06A32]
Track 8 accurately ripped (confidence 3) [E4DBADC4]
Track 9 accurately ripped (confidence 3) [077494E5]
Track 10 accurately ripped (confidence 3) [500E40FD]
Track 11 accurately ripped (confidence 3) [B80DA0C1]
Track 12 accurately ripped (confidence 3) [661ABEFF]

All tracks accurately ripped

End of status report

==== Log checksum BF4305D97D946B327981D09F6CA00603171AA222E525172C757AC1DE5D43AD2C ====

REM GENRE “Punk Rock”
REM DATE 1981
REM DISCID A308380C
REM COMMENT “ExactAudioCopy v1.0b1”
PERFORMER “Ramones”
TITLE “Pleasant Dreams (WPCP-3146)”
FILE “Ramones – Pleasant Dreams (WPCP-3146).flac” WAVE
TRACK 01 AUDIO
TITLE “We Want The Airwaves”
PERFORMER “Ramones”
INDEX 01 00:00:00
TRACK 02 AUDIO
TITLE “All’s Quiet On The Eastern Front”
PERFORMER “Ramones”
INDEX 01 03:22:50
TRACK 03 AUDIO
TITLE “The KKK Took My Baby Away”
PERFORMER “Ramones”
INDEX 00 05:36:09
INDEX 01 05:37:30
TRACK 04 AUDIO
TITLE “Don’t Go”
PERFORMER “Ramones”
INDEX 00 08:09:40
INDEX 01 08:09:45
TRACK 05 AUDIO
TITLE “You Sound Like You’re Sick”
PERFORMER “Ramones”
INDEX 00 10:56:40
INDEX 01 10:58:30
TRACK 06 AUDIO
TITLE “It’s Not My Place”
PERFORMER “Ramones”
INDEX 00 13:40:01
INDEX 01 13:41:57
TRACK 07 AUDIO
TITLE “She’s A Sensation”
PERFORMER “Ramones”
INDEX 00 17:06:18
INDEX 01 17:07:27
TRACK 08 AUDIO
TITLE “7-11”
PERFORMER “Ramones”
INDEX 00 20:33:70
INDEX 01 20:37:10
TRACK 09 AUDIO
TITLE “You Didn’t Mean Anything To Me”
PERFORMER “Ramones”
INDEX 00 24:11:55
INDEX 01 24:16:60
TRACK 10 AUDIO
TITLE “Come On Now”
PERFORMER “Ramones”
INDEX 01 27:16:70
TRACK 11 AUDIO
TITLE “This Buisiness Is Killing Me”
PERFORMER “Ramones”
INDEX 00 29:49:16
INDEX 01 29:50:42
TRACK 12 AUDIO
TITLE “Sitting In My Room”
PERFORMER “Ramones”
INDEX 00 32:30:62
INDEX 01 32:32:27


Leave a Reply

Your email address will not be published. Required fields are marked *

This site uses Akismet to reduce spam. Learn how your comment data is processed.