Ramones – Mondo Bizarro




Artist: Ramones
Year: 1992
Genre: Punk
Notes: Discogs
Add. Notes:
Encoder: FLAC
Bitrate: ~1000 kBit/s (44.1 kHz/16 Bit/s)
Bin/Cue incl.: Yes
Size: 288,04 MB
Password: “slam” (without ” “)


http://www.share-online.biz/dl/AKBIYSRPUS4
https://rapidgator.net/file/a0577a264cb8c115a7ba094cc107488f
https://uploadbyte.com/5mwtcixgwink
https://justupload.io/ltax9ar52xo2
https://uploadever.com/061gbgkfsg7e

Tracklist:

1 - Censorshit - 3:13
2 - The Job That Ate My Brain - 2:17
3 - Poison Heart - 4:04
4 - Anxiety - 2:04
5 - Strength To Endure - 2:59
6 - It's Gonna Be Alright - 3:20
7 - Take It As It Comes - 2:07
8 - Main Man - 3:29
9 - Tomorrow She Goes Away - 2:41
10 - I Won't Let It Happen - 2:22
11 - Cabbies On Crack - 3:01
12 - Heidi Is A Headcase - 2:47
13 - Touring - 2:51

EAC-Log, CUE-Sheed & NFO:

Click to open spoiler
Exact Audio Copy V0.99 prebeta 4 from 23. January 2008

EAC extraction logfile from 17. March 2008, 16:37

RAMONES / Mondo Bizarro

Used drive : PLEXTOR DVDR PX-716A Adapter: 3 ID: 0

Read mode : Secure
Utilize accurate stream : Yes
Defeat audio cache : Yes
Make use of C2 pointers : No

Read offset correction : 30
Overread into Lead-In and Lead-Out : Yes
Fill up missing offset samples with silence : Yes
Delete leading and trailing silent blocks : No
Null samples used in CRC calculations : Yes
Used interface : Installed external ASPI interface

Used output format : Internal WAV Routines
Sample format : 44.100 Hz; 16 Bit; Stereo

TOC of the extracted CD

Track | Start | Length | Start sector | End sector
———————————————————
1 | 0:00.37 | 3:13.08 | 37 | 14519
2 | 3:13.45 | 2:18.05 | 14520 | 24874
3 | 5:31.50 | 4:03.52 | 24875 | 43151
4 | 9:35.27 | 2:04.33 | 43152 | 52484
5 | 11:39.60 | 2:59.27 | 52485 | 65936
6 | 14:39.12 | 3:19.73 | 65937 | 80934
7 | 17:59.10 | 2:07.52 | 80935 | 90511
8 | 20:06.62 | 3:28.20 | 90512 | 106131
9 | 23:35.07 | 2:41.63 | 106132 | 118269
10 | 26:16.70 | 2:21.12 | 118270 | 128856
11 | 28:38.07 | 2:59.63 | 128857 | 142344
12 | 31:37.70 | 2:46.60 | 142345 | 154854
13 | 34:24.55 | 2:52.65 | 154855 | 167819

Range status and errors

Selected range

Filename C:\200\Ramones – Mondo Bizarro (1992)\Ramones – Mondo Bizarro.wav

Peak level 100.0 %
Range quality 100.0 %
Test CRC AFB02304
Copy CRC AFB02304
Copy OK

No errors occurred

AccurateRip summary

Track 1 accurately ripped (confidence 5) [14F5EA7D]
Track 2 accurately ripped (confidence 5) [174D6488]
Track 3 accurately ripped (confidence 5) [8D212D03]
Track 4 accurately ripped (confidence 5) [8108BB8F]
Track 5 accurately ripped (confidence 5) [77DB5D1B]
Track 6 accurately ripped (confidence 5) [F54D4237]
Track 7 accurately ripped (confidence 5) [CC720849]
Track 8 accurately ripped (confidence 5) [B5771C9A]
Track 9 accurately ripped (confidence 5) [5648660F]
Track 10 accurately ripped (confidence 5) [DC9B9B58]
Track 11 accurately ripped (confidence 5) [FAFCAF54]
Track 12 accurately ripped (confidence 5) [D9FAC3CB]
Track 13 accurately ripped (confidence 5) [B4E443AC]

All tracks accurately ripped

End of status report

REM GENRE “Punk Rock”
REM DATE 1992
REM DISCID B008BD0D
REM COMMENT “ExactAudioCopy v0.99pb4”
PERFORMER “RAMONES”
TITLE “Mondo Bizarro”
FILE “Ramones – Mondo Bizarro.wav” WAVE
TRACK 01 AUDIO
TITLE “Censorshit”
PERFORMER “RAMONES”
INDEX 00 00:00:00
INDEX 01 00:00:37
TRACK 02 AUDIO
TITLE “The Job That Ate My Brain”
PERFORMER “RAMONES”
INDEX 01 03:13:45
TRACK 03 AUDIO
TITLE “Poison Heart”
PERFORMER “RAMONES”
INDEX 00 05:31:37
INDEX 01 05:31:50
TRACK 04 AUDIO
TITLE “Anxiety”
PERFORMER “RAMONES”
INDEX 01 09:35:27
TRACK 05 AUDIO
TITLE “Strength To Endure”
PERFORMER “RAMONES”
INDEX 01 11:39:60
TRACK 06 AUDIO
TITLE “It’s Gonna Be Alright”
PERFORMER “RAMONES”
INDEX 00 14:39:11
INDEX 01 14:39:12
TRACK 07 AUDIO
TITLE “Take It As It Comes”
PERFORMER “RAMONES”
INDEX 01 17:59:10
TRACK 08 AUDIO
TITLE “Main Man”
PERFORMER “RAMONES”
INDEX 01 20:06:62
TRACK 09 AUDIO
TITLE “Tomorrow She Goes Away”
PERFORMER “RAMONES”
INDEX 00 23:33:57
INDEX 01 23:35:07
TRACK 10 AUDIO
TITLE “I Won’t Let It Happen”
PERFORMER “RAMONES”
INDEX 01 26:16:70
TRACK 11 AUDIO
TITLE “Cabbies On Crack”
PERFORMER “RAMONES”
INDEX 01 28:38:07
TRACK 12 AUDIO
TITLE “Heidi Is A Headcase”
PERFORMER “RAMONES”
INDEX 01 31:37:70
TRACK 13 AUDIO
TITLE “Touring”
PERFORMER “RAMONES”
INDEX 01 34:24:55

Leave a Reply

Your email address will not be published. Required fields are marked *

This site uses Akismet to reduce spam. Learn how your comment data is processed.