Ramones – Mondo Bizarro (Remastered)




Artist: Ramones
Year: 1992/2004
Genre: Punk
Notes: Discogs
Add. Notes: Remastered
Cover incl.: Yes
Encoder: FLAC
Bitrate: ~900 kBit/s (44.1 kHz/16 Bit/s)
Log & Cue incl.: Yes
Size: 295,54 MB
Password: “slam” (without ” “)


All Downloads/Hosters are compatible

Download 1
Turbobit.net
Rapidgator.net
UploadByte.com
UploadEver.com
JustUpload.io
Download 2
Turbobit.net
Rapidgator.net
UploadByte.com
UploadEver.com
JustUpload.io
Download 3
Turbobit.net
Rapidgator.net
UploadByte.com
UploadEver.com
JustUpload.io

Tracklist:

01 - Censorshit 
02 - The Job That Ate My Brain 
03 - Poison Heart 
04 - Anxiety 
05 - Strength To Endure 
06 - It's Gonna Be Alright 
07 - Take It As It Comes 
08 - Main Man 
09 - Tomorrow She Goes Away 
10 - I Won't Let It Happen  
11 - Cabbies On Crack 
12 - Heidi Is A Headcase 
13 - Touring 
14 - Spiderman

EAC-Log, CUE-Sheed & NFO:

Click to open spoiler
Exact Audio Copy V0.99 prebeta 4 from 23. January 2008

EAC extraction logfile from 19. April 2008, 12:21

Ramones / Mondo Bizarro

Used drive : HL-DT-STDVDRAM GSA-H10N Adapter: 1 ID: 0

Read mode : Secure
Utilize accurate stream : Yes
Defeat audio cache : Yes
Make use of C2 pointers : No

Read offset correction : 667
Overread into Lead-In and Lead-Out : No
Fill up missing offset samples with silence : Yes
Delete leading and trailing silent blocks : No
Null samples used in CRC calculations : Yes
Used interface : Native Win32 interface for Win NT & 2000

Used output format : Internal WAV Routines
Sample format : 44.100 Hz; 16 Bit; Stereo

TOC of the extracted CD

Track | Start | Length | Start sector | End sector
———————————————————
1 | 0:00.00 | 3:12.16 | 0 | 14415
2 | 3:12.16 | 2:18.19 | 14416 | 24784
3 | 5:30.35 | 4:03.69 | 24785 | 43078
4 | 9:34.29 | 2:04.11 | 43079 | 52389
5 | 11:38.40 | 2:59.39 | 52390 | 65853
6 | 14:38.04 | 3:19.54 | 65854 | 80832
7 | 17:57.58 | 2:07.63 | 80833 | 90420
8 | 20:05.46 | 3:28.05 | 90421 | 106025
9 | 23:33.51 | 2:41.43 | 106026 | 118143
10 | 26:15.19 | 2:21.34 | 118144 | 128752
11 | 28:36.53 | 3:00.15 | 128753 | 142267
12 | 31:36.68 | 2:46.62 | 142268 | 154779
13 | 34:23.55 | 2:51.50 | 154780 | 167654
14 | 37:15.30 | 1:57.57 | 167655 | 176486

Range status and errors

Selected range

Filename D:\Ramones – Mondo Bizarro (2004) [AHOY CD 245]\CDImage.wav

Peak level 97.7 %
Range quality 100.0 %
Copy CRC 92FB15BE
Copy OK

No errors occurred

AccurateRip summary

Track 1 accurately ripped (confidence 1) [BBECA6C9]
Track 2 accurately ripped (confidence 1) [B1753766]
Track 3 accurately ripped (confidence 1) [424AB4E5]
Track 4 accurately ripped (confidence 1) [34E52AA9]
Track 5 accurately ripped (confidence 1) [6B4D18AD]
Track 6 accurately ripped (confidence 1) [D6E427F8]
Track 7 accurately ripped (confidence 1) [EB180FC3]
Track 8 accurately ripped (confidence 1) [EC0C6EC5]
Track 9 accurately ripped (confidence 1) [5BC09F7A]
Track 10 accurately ripped (confidence 1) [8F23ED13]
Track 11 accurately ripped (confidence 1) [D5A8618C]
Track 12 accurately ripped (confidence 1) [A10A33D9]
Track 13 accurately ripped (confidence 1) [C4FC1D67]
Track 14 accurately ripped (confidence 1) [F9CAF0BE]

All tracks accurately ripped

End of status report

REM GENRE “Punk Rock”
REM DATE 1992
REM DISCID C109310E
REM COMMENT “ExactAudioCopy v0.99pb4”
PERFORMER “Ramones”
TITLE “Mondo Bizarro”
FILE “CDImage.flac” WAVE
TRACK 01 AUDIO
TITLE “Censorshit”
PERFORMER “Ramones”
INDEX 01 00:00:00
TRACK 02 AUDIO
TITLE “The Job That Ate My Brain”
PERFORMER “Ramones”
INDEX 01 03:12:16
TRACK 03 AUDIO
TITLE “Poison Heart”
PERFORMER “Ramones”
INDEX 01 05:30:35
TRACK 04 AUDIO
TITLE “Anxiety”
PERFORMER “Ramones”
INDEX 01 09:34:29
TRACK 05 AUDIO
TITLE “Strength To Endure”
PERFORMER “Ramones”
INDEX 01 11:38:40
TRACK 06 AUDIO
TITLE “It’s Gonna Be Alright”
PERFORMER “Ramones”
INDEX 01 14:38:04
TRACK 07 AUDIO
TITLE “Take It As It Comes”
PERFORMER “Ramones”
INDEX 01 17:57:58
TRACK 08 AUDIO
TITLE “Main Man”
PERFORMER “Ramones”
INDEX 01 20:05:46
TRACK 09 AUDIO
TITLE “Tomorrow She Goes Away”
PERFORMER “Ramones”
INDEX 01 23:33:51
TRACK 10 AUDIO
TITLE “I Won’t Let It Happen”
PERFORMER “Ramones”
INDEX 01 26:15:19
TRACK 11 AUDIO
TITLE “Cabbies On Crack”
PERFORMER “Ramones”
INDEX 01 28:36:53
TRACK 12 AUDIO
TITLE “Heidi Is A Headcase”
PERFORMER “Ramones”
INDEX 01 31:36:68
TRACK 13 AUDIO
TITLE “Touring”
PERFORMER “Ramones”
INDEX 01 34:23:55
TRACK 14 AUDIO
TITLE “Spiderman”
PERFORMER “Ramones”
INDEX 01 37:15:30

Leave a Reply

Your email address will not be published. Required fields are marked *

This site uses Akismet to reduce spam. Learn how your comment data is processed.