Ramones – Leave Home




Artist: Ramones
Year: 1977/1988
Genre: Punk
Notes: Discogs
Add. Notes:
Cover incl.: Yes
Encoder: FLAC
Bitrate: ~1000 kBit/s (44.1 kHz/16 Bit/s)
Log & Cue incl.: Yes
Size: 204,24 MB
Password: “slam” (without ” “)


All Downloads/Hosters are compatible

Download 1
Turbobit.net
Rapidgator.net
UploadByte.com
UploadEver.com
JustUpload.io
Download 2
Turbobit.net
Rapidgator.net
UploadByte.com
UploadEver.com
JustUpload.io
Download 3
Turbobit.net
Rapidgator.net
UploadByte.com
UploadEver.com
JustUpload.io

Tracklist:

1 - I Wanna Be Sedated - 2:30
2 - Teenage Lobotomy - 2:02
3 - Do You Remember Rock 'N' Roll Radio? - 3:50
4 - Gimme Gimme Shock Treatment - 1:41
5 - Beat On The Brat - 2:31
6 - Sheena Is A Punk Rocker - 2:46
7 - I Wanna Live - 2:37
8 - Pinhead - 2:43
9 - Blitzkrieg Bop - 2:10
10 - Cretin Hop - 1:55
11 - Rockaway Beach - 2:05
12 - Commando - 1:53
13 - I Wanna Be Your Boyfriend - 2:26
14 - Mama's Boy - 2:10
15 - Bop 'Til You Drop - 2:12
16 - We're A Happy Family - 2:38
17 - Bonzo Goes To Bitburg - 3:53
18 - Outsider - 2:11
19 - Psycho Therapy - 2:33
20 - Wart Hog - 1:54
21 - Animal Boy - 1:51
22 - Needles & Pins - 2:22
23 - Howling At The Moon (Sha-La-La) - 3:33
24 - Somebody Put Something In My Drink - 3:19
25 - We Want The Airwaves - 3:21
26 - Chinese Rock - 2:27
27 - I Just Want To Have Something To Do - 2:41
28 - The KKK Took My Baby Away - 2:31
29 - Indian Giver - 2:45
30 - Rock 'N' Roll High School - 2:18

EAC-Log, CUE-Sheed & NFO:

Click to open spoiler
Exact Audio Copy V0.99 prebeta 4 from 23. January 2008

EAC extraction logfile from 12. May 2009, 16:07

Ramones / Leave Home

Used drive : PIONEER DVD-RW DVR-109 Adapter: 0 ID: 0

Read mode : Secure
Utilize accurate stream : Yes
Defeat audio cache : Yes
Make use of C2 pointers : No

Read offset correction : 48
Overread into Lead-In and Lead-Out : No
Fill up missing offset samples with silence : Yes
Delete leading and trailing silent blocks : No
Null samples used in CRC calculations : Yes
Used interface : Native Win32 interface for Win NT & 2000
Gap handling : Appended to previous track

Used output format : User Defined Encoder
Selected bitrate : 1024 kBit/s
Quality : High
Add ID3 tag : No
Command line compressor : C:\Program Files\FLAC\flac.exe
Additional command line options : -V -8 -T “artist=%a” -T “title=%t” -T “album=%g” -T “date=%y” -T “tracknumber=%n” -T “genre=%m” %s

TOC of the extracted CD

Track | Start | Length | Start sector | End sector
———————————————————
1 | 0:00.00 | 2:11.20 | 0 | 9844
2 | 2:11.20 | 1:43.60 | 9845 | 17629
3 | 3:55.05 | 2:19.22 | 17630 | 28076
4 | 6:14.27 | 2:05.73 | 28077 | 37524
5 | 8:20.25 | 2:46.67 | 37525 | 50041
6 | 11:07.17 | 2:12.23 | 50042 | 59964
7 | 13:19.40 | 2:46.00 | 59965 | 72414
8 | 16:05.40 | 2:14.55 | 72415 | 82519
9 | 18:20.20 | 2:06.72 | 82520 | 92041
10 | 20:27.17 | 2:36.03 | 92042 | 103744
11 | 23:03.20 | 2:03.42 | 103745 | 113011
12 | 25:06.62 | 1:54.18 | 113012 | 121579
13 | 27:01.05 | 2:41.72 | 121580 | 133726
14 | 29:43.02 | 1:55.68 | 133727 | 142419

Track 1

Filename F:\Torrent\FLAC\Ramones\Leave Home\01 – Glad To See You Go.wav

Pre-gap length 0:00:02.00

Peak level 86.2 %
Track quality 100.0 %
Test CRC 8D0AE050
Copy CRC 8D0AE050
Copy OK

Track 2

Filename F:\Torrent\FLAC\Ramones\Leave Home\02 – Gimme Gimme Shock Treatment.wav

Pre-gap length 0:00:01.00

Peak level 67.1 %
Track quality 100.0 %
Test CRC 73C148D6
Copy CRC 73C148D6
Copy OK

Track 3

Filename F:\Torrent\FLAC\Ramones\Leave Home\03 – I Remember You.wav

Pre-gap length 0:00:01.53

Peak level 80.0 %
Track quality 100.0 %
Test CRC 8218F6B7
Copy CRC 8218F6B7
Copy OK

Track 4

Filename F:\Torrent\FLAC\Ramones\Leave Home\04 – Oh Oh I Love Her So.wav

Pre-gap length 0:00:01.00

Peak level 77.3 %
Track quality 100.0 %
Test CRC 6A582B92
Copy CRC 6A582B92
Copy OK

Track 5

Filename F:\Torrent\FLAC\Ramones\Leave Home\05 – Sheena Is A Punk Rocker.wav

Pre-gap length 0:00:01.00

Peak level 83.9 %
Track quality 100.0 %
Test CRC 6D819EAC
Copy CRC 6D819EAC
Copy OK

Track 6

Filename F:\Torrent\FLAC\Ramones\Leave Home\06 – Suzy Is A Headbanger.wav

Pre-gap length 0:00:01.00

Peak level 84.6 %
Track quality 100.0 %
Test CRC 3A033E9E
Copy CRC 3A033E9E
Copy OK

Track 7

Filename F:\Torrent\FLAC\Ramones\Leave Home\07 – Pinhead.wav

Pre-gap length 0:00:01.06

Peak level 87.8 %
Track quality 100.0 %
Test CRC 1A01960D
Copy CRC 1A01960D
Copy OK

Track 8

Filename F:\Torrent\FLAC\Ramones\Leave Home\08 – Now I Wanna Be A Good Boy.wav

Pre-gap length 0:00:01.17

Peak level 71.8 %
Track quality 100.0 %
Test CRC BA3C36AB
Copy CRC BA3C36AB
Copy OK

Track 9

Filename F:\Torrent\FLAC\Ramones\Leave Home\09 – Swallow My Pride.wav

Pre-gap length 0:00:01.57

Peak level 70.8 %
Track quality 100.0 %
Test CRC D67FA85F
Copy CRC D67FA85F
Copy OK

Track 10

Filename F:\Torrent\FLAC\Ramones\Leave Home\10 – What`s Your Game.wav

Pre-gap length 0:00:01.00

Peak level 70.3 %
Track quality 99.9 %
Test CRC 5BF73EAD
Copy CRC 5BF73EAD
Copy OK

Track 11

Filename F:\Torrent\FLAC\Ramones\Leave Home\11 – California Sun (BMI).wav

Pre-gap length 0:00:01.00

Peak level 77.6 %
Track quality 100.0 %
Test CRC 43F0A7A5
Copy CRC 43F0A7A5
Copy OK

Track 12

Filename F:\Torrent\FLAC\Ramones\Leave Home\12 – Commando.wav

Pre-gap length 0:00:01.20

Peak level 64.9 %
Track quality 99.9 %
Test CRC 83476D63
Copy CRC 83476D63
Copy OK

Track 13

Filename F:\Torrent\FLAC\Ramones\Leave Home\13 – You`re Gonna Kill That Girl.wav

Pre-gap length 0:00:00.80

Peak level 69.0 %
Track quality 100.0 %
Test CRC 369BE50C
Copy CRC 369BE50C
Copy OK

Track 14

Filename F:\Torrent\FLAC\Ramones\Leave Home\14 – You Should Have Never Opened That Door.wav

Pre-gap length 0:00:01.89

Peak level 66.2 %
Track quality 99.9 %
Test CRC 6F7E1CC2
Copy CRC 6F7E1CC2
Copy OK

No errors occurred

End of status report

REM GENRE Punk
REM DATE 1977
REM DISCID B2076A0E
REM COMMENT “ExactAudioCopy v0.99pb4”
FILE “Ramones\Leave Home\01 – Glad To See You Go.wav” WAVE
TRACK 01 AUDIO
INDEX 01 00:00:00
TRACK 02 AUDIO
INDEX 00 02:10:20
FILE “Ramones\Leave Home\02 – Gimme Gimme Shock Treatment.wav” WAVE
INDEX 01 00:00:00
TRACK 03 AUDIO
INDEX 00 01:42:20
FILE “Ramones\Leave Home\03 – I Remember You.wav” WAVE
INDEX 01 00:00:00
TRACK 04 AUDIO
INDEX 00 02:18:22
FILE “Ramones\Leave Home\04 – Oh Oh I Love Her So.wav” WAVE
INDEX 01 00:00:00
TRACK 05 AUDIO
INDEX 00 02:04:73
FILE “Ramones\Leave Home\05 – Sheena Is A Punk Rocker.wav” WAVE
INDEX 01 00:00:00
TRACK 06 AUDIO
INDEX 00 02:45:67
FILE “Ramones\Leave Home\06 – Suzy Is A Headbanger.wav” WAVE
INDEX 01 00:00:00
TRACK 07 AUDIO
INDEX 00 02:11:18
FILE “Ramones\Leave Home\07 – Pinhead.wav” WAVE
INDEX 01 00:00:00
TRACK 08 AUDIO
INDEX 00 02:44:62
FILE “Ramones\Leave Home\08 – Now I Wanna Be A Good Boy.wav” WAVE
INDEX 01 00:00:00
TRACK 09 AUDIO
INDEX 00 02:13:12
FILE “Ramones\Leave Home\09 – Swallow My Pride.wav” WAVE
INDEX 01 00:00:00
TRACK 10 AUDIO
INDEX 00 02:05:72
FILE “Ramones\Leave Home\10 – What`s Your Game.wav” WAVE
INDEX 01 00:00:00
TRACK 11 AUDIO
INDEX 00 02:35:03
FILE “Ramones\Leave Home\11 – California Sun (BMI).wav” WAVE
INDEX 01 00:00:00
TRACK 12 AUDIO
INDEX 00 02:02:27
FILE “Ramones\Leave Home\12 – Commando.wav” WAVE
INDEX 01 00:00:00
TRACK 13 AUDIO
INDEX 00 01:53:33
FILE “Ramones\Leave Home\13 – You`re Gonna Kill That Girl.wav” WAVE
INDEX 01 00:00:00
TRACK 14 AUDIO
INDEX 00 02:40:05
FILE “Ramones\Leave Home\14 – You Should Have Never Opened That Door.wav” WAVE
INDEX 01 00:00:00

Leave a Reply

Your email address will not be published. Required fields are marked *

This site uses Akismet to reduce spam. Learn how your comment data is processed.