Ramones – Leave Home (Remastered)




Artist: Ramones
Year: 1977/2001
Genre: Punk
Notes: Discogs
Add. Notes: Remastered
Cover incl.: Yes
Encoder: FLAC
Bitrate: ~900 kBit/s (44.1 kHz/16 Bit/s)
Log & Cue incl.: Yes
Size: 513,82 MB
Password: “slam” (without ” “)


All Downloads/Hosters are compatible

Download 1
Turbobit.net
Rapidgator.net
UploadEver.com
JustUpload.io
UsersDrive.com
Download 2
Turbobit.net
Rapidgator.net
UploadEver.com
JustUpload.io
UsersDrive.com
Download 3
Turbobit.net
Rapidgator.net
UploadEver.com
JustUpload.io
UsersDrive.com

Tracklist:

1 - Glad To See You Go - 2:13
2 - Gimme Gimme Shock Treatment - 1:44
3 - I Remember You - 2:21
4 - Oh Oh I Love Her So - 2:09
5 - Carbona Not Glue - 1:55
6 - Suzy Is A Headbanger - 2:14
7 - Pinhead - 2:45
8 - Now I Wanna Be A Good Boy - 2:16
9 - Swallow My Pride - 2:10
10 - What's Your Game - 2:41
11 - California Sun - 2:07
12 - Commando - 1:53
13 - You're Gonna Kill That Girl - 2:44
14 - You Should Never Have Opened That Door - 1:58
15 - Babysitter - 2:49
Bonus Material: Recorded Live At The Roxy, Hollywood, 
CA (8/12/76)
16 - Loudmouth - 2:08
17 - Beat On The Brat - 2:36
18 - Blitzkrieg Bop - 2:13
19 - I Remember You - 2:17
20 - Glad To See You Go - 2:03
21 - Chain Saw - 1:51
22 - 53rd & 3rd - 2:27
23 - I Wanna Be Your Boyfriend - 2:22
24 - Havana Affair - 1:53
25 - Listen To My Heart - 1:47
26 - California Sun - 1:58
27 - Judy Is A Punk - 1:23
28 - I Don't Wanna Walk Around With You - 1:31
29 - Today Your Love, Tomorrow The World - 2:52
30 - Now I Wanna Sniff Some Glue - 1:28
31 - Let's Dance - 2:06

EAC-Log, CUE-Sheed & NFO:

Click to open spoiler
EAC extraction logfile from 3. June 2006, 15:59 for CD
Ramones / Leave Home

Used drive : TOSHIBA ODD-DVD SD-M1802 Adapter: 1 ID: 1
Read mode : Secure with NO C2, accurate stream, disable cache
Read offset correction : 691
Overread into Lead-In and Lead-Out : No

Used output format : Internal WAV Routines
44.100 Hz; 16 Bit; Stereo

Other options :
Fill up missing offset samples with silence : Yes
Delete leading and trailing silent blocks : No
Installed external ASPI interface

Range status and errors
Selected range
Filename F:\mp3\Temp\Ramones.wav

Peak level 97.2 %
Range quality 100.0 %
CRC 90B57183
Copy OK

No errors occured

End of status report

REM GENRE “Punk Rock”
REM DATE 1977
REM DISCID CC0FBE1F
REM COMMENT “ExactAudioCopy v0.95b3”
CATALOG 0081227430726
PERFORMER “Ramones”
TITLE “Leave Home”
FILE “Ramones.flac” WAVE
TRACK 01 AUDIO
TITLE “Glad To See You Go”
PERFORMER “Ramones”
ISRC USWB10101856
INDEX 01 00:00:00
TRACK 02 AUDIO
TITLE “Gimme Gimme Shock Treatment”
PERFORMER “Ramones”
ISRC USWB19900891
INDEX 00 02:12:12
INDEX 01 02:14:40
TRACK 03 AUDIO
TITLE “I Remember You”
PERFORMER “Ramones”
ISRC USWB10101857
INDEX 00 03:56:45
INDEX 01 03:59:17
TRACK 04 AUDIO
TITLE “Oh Oh I Love Her So”
PERFORMER “Ramones”
ISRC USWB10101858
INDEX 00 06:18:40
INDEX 01 06:20:22
TRACK 05 AUDIO
TITLE “Carbona Not Glue”
PERFORMER “Ramones”
ISRC USWB10102797
INDEX 00 08:25:71
INDEX 01 08:29:50
TRACK 06 AUDIO
TITLE “Suzy Is A Headbanger”
PERFORMER “Ramones”
ISRC USWB10101859
INDEX 00 10:21:70
INDEX 01 10:24:67
TRACK 07 AUDIO
TITLE “Pinhead”
PERFORMER “Ramones”
ISRC USWB19700121
INDEX 00 12:36:02
INDEX 01 12:39:12
TRACK 08 AUDIO
TITLE “Now I Wanna Be A Good Boy”
PERFORMER “Ramones”
ISRC USWB10101860
INDEX 00 15:22:50
INDEX 01 15:25:07
TRACK 09 AUDIO
TITLE “Swallow My Pride”
PERFORMER “Ramones”
ISRC USWB10101861
INDEX 00 17:38:15
INDEX 01 17:41:57
TRACK 10 AUDIO
TITLE “What’s Your Game”
PERFORMER “Ramones”
ISRC USWB10101862
INDEX 00 19:47:70
INDEX 01 19:51:65
TRACK 11 AUDIO
TITLE “California Sun”
PERFORMER “Ramones”
ISRC USWB10101863
INDEX 00 22:28:72
INDEX 01 22:33:50
TRACK 12 AUDIO
TITLE “Commando”
PERFORMER “Ramones”
ISRC USWB19900898
INDEX 00 24:35:52
INDEX 01 24:41:47
TRACK 13 AUDIO
TITLE “You’re Gonna Kill That Girl”
PERFORMER “Ramones”
ISRC USWB10101864
INDEX 01 26:35:20
TRACK 14 AUDIO
TITLE “You Should Never Have Opened That Door”
PERFORMER “Ramones”
ISRC USWB10101865
INDEX 00 29:15:05
INDEX 01 29:19:10
TRACK 15 AUDIO
TITLE “Babysitter”
PERFORMER “Ramones”
ISRC USWB10101866
INDEX 00 31:15:35
INDEX 01 31:18:22
TRACK 16 AUDIO
TITLE “Loudmouth (Live)”
PERFORMER “Ramones”
ISRC USWB10103392
INDEX 01 34:07:45
TRACK 17 AUDIO
TITLE “Beat On The Brat (Live)”
PERFORMER “Ramones”
ISRC USWB10103392
INDEX 01 36:16:40
TRACK 18 AUDIO
TITLE “Blitzkrieg Bop (Live)”
PERFORMER “Ramones”
ISRC USWB10103394
INDEX 01 38:52:35
TRACK 19 AUDIO
TITLE “I Remember You (Live)”
PERFORMER “Ramones”
ISRC USWB10103394
INDEX 01 41:06:05
TRACK 20 AUDIO
TITLE “Glad To See You Go (Live)”
PERFORMER “Ramones”
ISRC USWB10103396
INDEX 01 43:23:07
TRACK 21 AUDIO
TITLE “Chain Saw (Live)”
PERFORMER “Ramones”
ISRC USWB10103397
INDEX 01 45:26:42
TRACK 22 AUDIO
TITLE “53rd & 3rd (Live)”
PERFORMER “Ramones”
ISRC USWB10103398
INDEX 01 47:17:70
TRACK 23 AUDIO
TITLE “I Wanna Be Your Boyfriend (Live)”
PERFORMER “Ramones”
ISRC USWB10103399
INDEX 01 49:45:57
TRACK 24 AUDIO
TITLE “Havana Affair (Live)”
PERFORMER “Ramones”
ISRC USWB10103400
INDEX 01 52:08:30
TRACK 25 AUDIO
TITLE “Listen To My Heart (Live)”
PERFORMER “Ramones”
ISRC USWB10103401
INDEX 01 54:01:40
TRACK 26 AUDIO
TITLE “California Sun (Live)”
PERFORMER “Ramones”
ISRC USWB10103402
INDEX 01 55:49:17
TRACK 27 AUDIO
TITLE “Judy Is A Punk (Live)”
PERFORMER “Ramones”
ISRC USWB10103403
INDEX 01 57:47:52
TRACK 28 AUDIO
TITLE “I Don’t Wanna Walk Around With You (Live)”
PERFORMER “Ramones”
ISRC USWB10103404
INDEX 01 59:10:70
TRACK 29 AUDIO
TITLE “Today Your Love, Tomorrow The World (Live)”
PERFORMER “Ramones”
ISRC USWB10103405
INDEX 01 60:42:62
TRACK 30 AUDIO
TITLE “Now I Wanna Be Sniff Some Glue (Live)”
PERFORMER “Ramones”
ISRC USWB10103406
INDEX 01 63:35:55
TRACK 31 AUDIO
TITLE “Let’s Dance (Live)”
PERFORMER “Ramones”
ISRC USWB10103406
INDEX 01 65:03:72

Leave a Reply

Your email address will not be published. Required fields are marked *

This site uses Akismet to reduce spam. Learn how your comment data is processed.