Ramones – Leave Home (Japanese Edition)




Artist: Ramones
Year: 1977/1990
Genre: Punk
Notes: Discogs
Add. Notes: Japanese Edition
Cover incl.: Yes
Encoder: FLAC
Bitrate: ~1000 kBit/s (44.1 kHz/16 Bit/s)
Log & Cue incl.: Yes
Size: 277,88 MB
Password: “slam” (without ” “)


All Downloads/Hosters are compatible

Download 1
Turbobit.net
Rapidgator.net
UploadEver.com
KatFile.com
UsersDrive.com
Download 2
Turbobit.net
Rapidgator.net
UploadEver.com
KatFile.com
UsersDrive.com
Download 3
Turbobit.net
Rapidgator.net
UploadEver.com
KatFile.com
UsersDrive.com

Tracklist:

1 - Glad To See You Go - 2:14
2 - Gimme Gimme Shock Treatment - 1:43
3 - I Remember You - 2:20
4 - Oh Oh I Love Her So - 2:08
5 - Sheena Is A Punk Rocker - 2:49
6 - Suzy Is A Headbanger - 2:13
7 - Pinhead - 2:45
8 - Now I Wanna Be A Good Boy - 2:15
9 - Swallow My Pride - 2:09
10 - What's Your Game - 2:38
11 - California Sun - 1:55
12 - Commando - 1:50
13 - You're Gonna Kill That Girl - 2:43
14 - You Should Never Have Opened That Door - 1:55

EAC-Log, CUE-Sheed & NFO:

Click to open spoiler
Exact Audio Copy V1.0 beta 1 from 15. November 2010

EAC extraction logfile from 8. May 2011, 21:09

Ramones / Leave Home (WPCP-3142)

Used drive : PLEXTOR CD-R PREMIUM2 Adapter: 8 ID: 0

Read mode : Secure
Utilize accurate stream : Yes
Defeat audio cache : Yes
Make use of C2 pointers : No

Read offset correction : 30
Overread into Lead-In and Lead-Out : No
Fill up missing offset samples with silence : Yes
Delete leading and trailing silent blocks : No
Null samples used in CRC calculations : Yes
Used interface : Installed external ASPI interface

Used output format : Internal WAV Routines
Sample format : 44.100 Hz; 16 Bit; Stereo

TOC of the extracted CD

Track | Start | Length | Start sector | End sector
———————————————————
1 | 0:00.00 | 2:13.25 | 0 | 9999
2 | 2:13.25 | 1:43.12 | 10000 | 17736
3 | 3:56.37 | 2:20.10 | 17737 | 28246
4 | 6:16.47 | 2:06.28 | 28247 | 37724
5 | 8:23.00 | 2:48.35 | 37725 | 50359
6 | 11:11.35 | 2:12.57 | 50360 | 60316
7 | 13:24.17 | 2:46.03 | 60317 | 72769
8 | 16:10.20 | 2:15.12 | 72770 | 82906
9 | 18:25.32 | 2:08.50 | 82907 | 92556
10 | 20:34.07 | 2:38.28 | 92557 | 104434
11 | 23:12.35 | 2:06.65 | 104435 | 113949
12 | 25:19.25 | 1:55.22 | 113950 | 122596
13 | 27:14.47 | 2:42.45 | 122597 | 134791
14 | 29:57.17 | 1:56.28 | 134792 | 143519

Range status and errors

Selected range

Filename C:\AvaxHome.ru\1st CD pressings [Japan 1990]\1977.1- Leave Home [WPCP-3142]\Ramones – Leave Home (WPCP-3142).wav

Peak level 100.0 %
Extraction speed 0.4 X
Range quality 100.0 %
Test CRC 9A5FBFB6
Copy CRC 9A5FBFB6
Copy OK

No errors occurred

AccurateRip summary

Track 1 accurately ripped (confidence 3) [0C3EDCB0]
Track 2 accurately ripped (confidence 3) [F5F61DD1]
Track 3 accurately ripped (confidence 3) [8FF4089F]
Track 4 accurately ripped (confidence 3) [A39A2B07]
Track 5 accurately ripped (confidence 3) [25C63D6F]
Track 6 accurately ripped (confidence 3) [09595BD0]
Track 7 accurately ripped (confidence 3) [383D90B7]
Track 8 accurately ripped (confidence 3) [7376FA85]
Track 9 accurately ripped (confidence 3) [A13BA066]
Track 10 accurately ripped (confidence 3) [EACE80FE]
Track 11 accurately ripped (confidence 3) [E95524E5]
Track 12 accurately ripped (confidence 3) [895590A9]
Track 13 accurately ripped (confidence 3) [9DD48F59]
Track 14 accurately ripped (confidence 3) [95CAA285]

All tracks accurately ripped

End of status report

==== Log checksum BD2A59FA4DF0D63A3721EFEB5A07B9E344E1F70EB504655D4A2840BCFFF429B6 ====

REM GENRE “Punk Rock”
REM DATE 1977
REM DISCID BD07790E
REM COMMENT “ExactAudioCopy v1.0b1”
PERFORMER “Ramones”
TITLE “Leave Home (WPCP-3142)”
FILE “Ramones – Leave Home (WPCP-3142).flac” WAVE
TRACK 01 AUDIO
TITLE “Glad To See You Go”
PERFORMER “Ramones”
INDEX 01 00:00:00
TRACK 02 AUDIO
TITLE “Gimme Gimme Shock Treatment”
PERFORMER “Ramones”
INDEX 00 02:12:32
INDEX 01 02:13:25
TRACK 03 AUDIO
TITLE “I Remember You”
PERFORMER “Ramones”
INDEX 00 03:55:08
INDEX 01 03:56:37
TRACK 04 AUDIO
TITLE “Oh Oh I Love Her So”
PERFORMER “Ramones”
INDEX 00 06:15:04
INDEX 01 06:16:47
TRACK 05 AUDIO
TITLE “Sheena Is A Punk Rocker”
PERFORMER “Ramones”
INDEX 00 08:20:37
INDEX 01 08:23:00
TRACK 06 AUDIO
TITLE “Suzy Is A Headbanger”
PERFORMER “Ramones”
INDEX 00 11:08:69
INDEX 01 11:11:35
TRACK 07 AUDIO
TITLE “Pinhead”
PERFORMER “Ramones”
INDEX 00 13:21:71
INDEX 01 13:24:17
TRACK 08 AUDIO
TITLE “Now I Wanna Be A Good Boy”
PERFORMER “Ramones”
INDEX 00 16:07:68
INDEX 01 16:10:20
TRACK 09 AUDIO
TITLE “Swallow My Pride”
PERFORMER “Ramones”
INDEX 00 18:23:03
INDEX 01 18:25:32
TRACK 10 AUDIO
TITLE “What’s Your Game”
PERFORMER “Ramones”
INDEX 00 20:30:71
INDEX 01 20:34:07
TRACK 11 AUDIO
TITLE “California Sun”
PERFORMER “Ramones”
INDEX 00 23:09:41
INDEX 01 23:12:35
TRACK 12 AUDIO
TITLE “Commando”
PERFORMER “Ramones”
INDEX 00 25:14:42
INDEX 01 25:19:25
TRACK 13 AUDIO
TITLE “You’re Gonna Kill That Girl”
PERFORMER “Ramones”
INDEX 00 27:12:07
INDEX 01 27:14:47
TRACK 14 AUDIO
TITLE “You Should Have Never Opened That Door”
PERFORMER “Ramones”
INDEX 00 29:54:09
INDEX 01 29:57:17

Leave a Reply

Your email address will not be published. Required fields are marked *

Enter the text from the image below
 

This site uses Akismet to reduce spam. Learn how your comment data is processed.