Ramones – Halfway To Sanity




Artist: Ramones
Year: 1987
Genre: Punk
Notes: Discogs
Add. Notes:
Cover incl.: Yes
Encoder: FLAC
Bitrate: ~900 kBit/s (44.1 kHz/16 Bit/s)
Log & Cue incl.: Yes
Size: 208,98 MB
Password: “slam” (without ” “)


All Downloads/Hosters are compatible

Download 1
Turbobit.net
Rapidgator.net
UploadEver.com
KatFile.com
UsersDrive.com
Download 2
Turbobit.net
Rapidgator.net
UploadEver.com
KatFile.com
UsersDrive.com
Download 3
Turbobit.net
Rapidgator.net
UploadEver.com
KatFile.com
UsersDrive.com

Tracklist:

1 - I Wanna Live - 2:38
2 - Bop 'Til You Drop - 2:12
3 - Garden Of Serenity - 2:26
4 - Weasel Face - 1:50
5 - Go Lil' Camaro Go - 2:03
6 - I Know Better Now - 2:40
7 - Death Of Me - 2:40
8 - I Lost My Mind - 1:33
9 - A Real Cool Time - 2:39
10 - I'm Not Jesus - 2:55
11 - Bye Bye Baby - 4:35
12 - Worm Man - 1:55

EAC-Log, CUE-Sheed & NFO:

Click to open spoiler
Exact Audio Copy V0.99 prebeta 3 from 28. July 2007

EAC extraction logfile from 15. November 2007, 4:52

Ramones / Halfway To Sanity

Used drive : HL-DT-STDVDRAM GSA-4160B Adapter: 5 ID: 1

Read mode : Secure
Utilize accurate stream : Yes
Defeat audio cache : Yes
Make use of C2 pointers : No

Read offset correction : 667
Overread into Lead-In and Lead-Out : No
Fill up missing offset samples with silence : Yes
Delete leading and trailing silent blocks : No
Null samples used in CRC calculations : Yes
Used interface : Installed external ASPI interface
Gap handling : Appended to previous track

Used output format : User Defined Encoder
Selected bitrate : 128 kBit/s
Quality : High
Add ID3 tag : No
Command line compressor : C:\Archivos de programa\Exact Audio Copy\flac.exe
Additional command line options : -8 -A tukey(0.25) -A gauss(0.1875) -b 4096 -V -T “artist=%a” -T “title=%t” -T “album=%g” -T “date=%y” -T “tracknumber=%n” -T “genre=%m” %s –sector-align

TOC of the extracted CD

Track | Start | Length | Start sector | End sector
———————————————————
1 | 0:00.00 | 2:36.65 | 0 | 11764
2 | 2:36.65 | 2:12.10 | 11765 | 21674
3 | 4:49.00 | 2:26.47 | 21675 | 32671
4 | 7:15.47 | 1:50.55 | 32672 | 40976
5 | 9:06.27 | 2:03.13 | 40977 | 50214
6 | 11:09.40 | 2:39.20 | 50215 | 62159
7 | 13:48.60 | 2:40.05 | 62160 | 74164
8 | 16:28.65 | 1:33.55 | 74165 | 81194
9 | 18:02.45 | 2:38.65 | 81195 | 93109
10 | 20:41.35 | 2:55.47 | 93110 | 106281
11 | 23:37.07 | 4:35.18 | 106282 | 126924
12 | 28:12.25 | 1:53.52 | 126925 | 135451

Track 1

Filename C:\Archivos de programa\Exact Audio Copy\Output\Ramones – Halfway To Sanity\01 – Ramones – I Wanna Live.wav

Pre-gap length 0:00:02.00

Peak level 90.1 %
Track quality 100.0 %
Test CRC B9CEBF6A
Copy CRC B9CEBF6A
Track not present in AccurateRip database
Copy OK

Track 2

Filename C:\Archivos de programa\Exact Audio Copy\Output\Ramones – Halfway To Sanity\02 – Ramones – Bop ‘Til You Drop.wav

Pre-gap length 0:00:03.61

Peak level 97.4 %
Track quality 100.0 %
Test CRC 836E950E
Copy CRC 836E950E
Track not present in AccurateRip database
Copy OK

Track 3

Filename C:\Archivos de programa\Exact Audio Copy\Output\Ramones – Halfway To Sanity\03 – Ramones – Garden Of Serenity.wav

Pre-gap length 0:00:03.61

Peak level 73.4 %
Track quality 100.0 %
Test CRC 1D244FEF
Copy CRC 1D244FEF
Track not present in AccurateRip database
Copy OK

Track 4

Filename C:\Archivos de programa\Exact Audio Copy\Output\Ramones – Halfway To Sanity\04 – Ramones – Weasel Face.wav

Pre-gap length 0:00:03.61

Peak level 85.0 %
Track quality 100.0 %
Test CRC 57626088
Copy CRC 57626088
Track not present in AccurateRip database
Copy OK

Track 5

Filename C:\Archivos de programa\Exact Audio Copy\Output\Ramones – Halfway To Sanity\05 – Ramones – Go Lil’ Camaro Go.wav

Pre-gap length 0:00:03.61

Peak level 100.0 %
Track quality 99.9 %
Test CRC A7268F77
Copy CRC A7268F77
Track not present in AccurateRip database
Copy OK

Track 6

Filename C:\Archivos de programa\Exact Audio Copy\Output\Ramones – Halfway To Sanity\06 – Ramones – I Know Better Now.wav

Pre-gap length 0:00:03.61

Peak level 77.6 %
Track quality 100.0 %
Test CRC DFF28609
Copy CRC DFF28609
Track not present in AccurateRip database
Copy OK

Track 7

Filename C:\Archivos de programa\Exact Audio Copy\Output\Ramones – Halfway To Sanity\07 – Ramones – Death Of Me.wav

Pre-gap length 0:00:03.81

Peak level 100.0 %
Track quality 99.9 %
Test CRC 002C2F33
Copy CRC 002C2F33
Track not present in AccurateRip database
Copy OK

Track 8

Filename C:\Archivos de programa\Exact Audio Copy\Output\Ramones – Halfway To Sanity\08 – Ramones – I Lost My Mind.wav

Pre-gap length 0:00:03.61

Peak level 90.7 %
Track quality 100.0 %
Test CRC 55EF9D19
Copy CRC 55EF9D19
Track not present in AccurateRip database
Copy OK

Track 9

Filename C:\Archivos de programa\Exact Audio Copy\Output\Ramones – Halfway To Sanity\09 – Ramones – A Real Cool Time.wav

Pre-gap length 0:00:03.61

Peak level 85.8 %
Track quality 100.0 %
Test CRC FE0B7274
Copy CRC FE0B7274
Track not present in AccurateRip database
Copy OK

Track 10

Filename C:\Archivos de programa\Exact Audio Copy\Output\Ramones – Halfway To Sanity\10 – Ramones – I’m Not Jesus.wav

Pre-gap length 0:00:03.61

Peak level 77.8 %
Track quality 99.9 %
Test CRC 785DDC5F
Copy CRC 785DDC5F
Track not present in AccurateRip database
Copy OK

Track 11

Filename C:\Archivos de programa\Exact Audio Copy\Output\Ramones – Halfway To Sanity\11 – Ramones – Bye Bye Baby.wav

Pre-gap length 0:00:03.61

Peak level 81.0 %
Track quality 100.0 %
Test CRC E3FDA692
Copy CRC E3FDA692
Track not present in AccurateRip database
Copy OK

Track 12

Filename C:\Archivos de programa\Exact Audio Copy\Output\Ramones – Halfway To Sanity\12 – Ramones – Worm Man.wav

Pre-gap length 0:00:03.61

Peak level 99.2 %
Track quality 100.0 %
Test CRC 58433863
Copy CRC 58433863
Track not present in AccurateRip database
Copy OK

None of the tracks are present in the AccurateRip database

No errors occurred

End of status report

REM GENRE “Punk Rock”
REM DATE 1987
REM DISCID A0070E0C
REM COMMENT “ExactAudioCopy v0.99pb3”
PERFORMER “Ramones”
TITLE “Halfway To Sanity”
FILE “01 – Ramones – I Wanna Live.wav” WAVE
TRACK 01 AUDIO
TITLE “I Wanna Live”
PERFORMER “Ramones”
INDEX 01 00:00:00
TRACK 02 AUDIO
TITLE “Bop ‘Til You Drop”
PERFORMER “Ramones”
INDEX 00 02:33:19
FILE “02 – Ramones – Bop ‘Til You Drop.wav” WAVE
INDEX 01 00:00:00
TRACK 03 AUDIO
TITLE “Garden Of Serenity”
PERFORMER “Ramones”
INDEX 00 02:08:39
FILE “03 – Ramones – Garden Of Serenity.wav” WAVE
INDEX 01 00:00:00
TRACK 04 AUDIO
TITLE “Weasel Face”
PERFORMER “Ramones”
INDEX 00 02:23:01
FILE “04 – Ramones – Weasel Face.wav” WAVE
INDEX 01 00:00:00
TRACK 05 AUDIO
TITLE “Go Lil’ Camaro Go”
PERFORMER “Ramones”
INDEX 00 01:47:09
FILE “05 – Ramones – Go Lil’ Camaro Go.wav” WAVE
INDEX 01 00:00:00
TRACK 06 AUDIO
TITLE “I Know Better Now”
PERFORMER “Ramones”
INDEX 00 01:59:42
FILE “06 – Ramones – I Know Better Now.wav” WAVE
INDEX 01 00:00:00
TRACK 07 AUDIO
TITLE “Death Of Me”
PERFORMER “Ramones”
INDEX 00 02:35:34
FILE “07 – Ramones – Death Of Me.wav” WAVE
INDEX 01 00:00:00
TRACK 08 AUDIO
TITLE “I Lost My Mind”
PERFORMER “Ramones”
INDEX 00 02:36:34
FILE “08 – Ramones – I Lost My Mind.wav” WAVE
INDEX 01 00:00:00
TRACK 09 AUDIO
TITLE “A Real Cool Time”
PERFORMER “Ramones”
INDEX 00 01:30:09
FILE “09 – Ramones – A Real Cool Time.wav” WAVE
INDEX 01 00:00:00
TRACK 10 AUDIO
TITLE “I’m Not Jesus”
PERFORMER “Ramones”
INDEX 00 02:35:19
FILE “10 – Ramones – I’m Not Jesus.wav” WAVE
INDEX 01 00:00:00
TRACK 11 AUDIO
TITLE “Bye Bye Baby”
PERFORMER “Ramones”
INDEX 00 02:52:01
FILE “11 – Ramones – Bye Bye Baby.wav” WAVE
INDEX 01 00:00:00
TRACK 12 AUDIO
TITLE “Worm Man”
PERFORMER “Ramones”
INDEX 00 04:31:47
FILE “12 – Ramones – Worm Man.wav” WAVE
INDEX 01 00:00:00


Leave a Reply

Your email address will not be published. Required fields are marked *

This site uses Akismet to reduce spam. Learn how your comment data is processed.