Ramones – End of the Century




Artist: Ramones
Year: 1980/1986
Genre: Punk
Notes: Discogs
Add. Notes:
Encoder: FLAC
Bitrate: ~900 kBit/s (44.1 kHz/16 Bit/s)
Bin/Cue incl.: Yes
Size: 248,7 MB
Password: “slam” (without ” “)


http://www.share-online.biz/dl/9F8ILTRP4EZ

https://rapidgator.net/file/1da3e897bf0bdd7adcbd6bb88c2aeae4

https://uploadbyte.com/x84jz2w7edaj

https://justupload.io/z4oeqynz8xgz

https://uploadever.com/n9ne3dwjzo5h

Tracklist:

1 - Do You Remember Rock'N'Roll Radio? 
2 - I'm Affected 
3 - Danny Says 
4 - Chinese Rock 
5 - The Return Of Jackie And Judy 
6 - Let's Go 
7 - Baby, I Love You 
8 - I Can't Make It On Time 
9 - This Ain't Havana 
10 - Rock'N'Roll High School 
11 - All The Way 
12 - High Risk Insurance

EAC-Log, CUE-Sheed & NFO:

Click to open spoiler
Exact Audio Copy V0.99 prebeta 3 from 28. July 2007

EAC extraction logfile from 12. November 2007, 22:43

Ramones / End of the Century

Used drive : HL-DT-STDVDRAM GSA-4160B Adapter: 5 ID: 1

Read mode : Secure
Utilize accurate stream : Yes
Defeat audio cache : Yes
Make use of C2 pointers : No

Read offset correction : 667
Overread into Lead-In and Lead-Out : No
Fill up missing offset samples with silence : Yes
Delete leading and trailing silent blocks : No
Null samples used in CRC calculations : Yes
Used interface : Installed external ASPI interface
Gap handling : Appended to previous track

Used output format : User Defined Encoder
Selected bitrate : 128 kBit/s
Quality : High
Add ID3 tag : No
Command line compressor : C:\Archivos de programa\Exact Audio Copy\flac.exe
Additional command line options : -8 -A tukey(0.25) -A gauss(0.1875) -b 4096 -V -T “artist=%a” -T “title=%t” -T “album=%g” -T “date=%y” -T “tracknumber=%n” -T “genre=%m” %s –sector-align

TOC of the extracted CD

Track | Start | Length | Start sector | End sector
———————————————————
1 | 0:00.32 | 3:51.33 | 32 | 17389
2 | 3:51.65 | 2:52.42 | 17390 | 30331
3 | 6:44.32 | 3:08.43 | 30332 | 44474
4 | 9:53.00 | 2:30.72 | 44475 | 55796
5 | 12:23.72 | 3:14.33 | 55797 | 70379
6 | 15:38.30 | 2:33.50 | 70380 | 81904
7 | 18:12.05 | 3:49.35 | 81905 | 99114
8 | 22:01.40 | 2:33.25 | 99115 | 110614
9 | 24:34.65 | 2:18.25 | 110615 | 120989
10 | 26:53.15 | 2:40.60 | 120990 | 133049
11 | 29:34.00 | 2:30.05 | 133050 | 144304
12 | 32:04.05 | 2:08.60 | 144305 | 153964

Track 1

Filename C:\Archivos de programa\Exact Audio Copy\Output\Ramones – End of the Century\01 – Ramones – Do You Remember Rock ‘N’ Roll Radio .wav

Pre-gap length 0:00:02.42

Peak level 84.5 %
Track quality 99.9 %
Test CRC FCA20417
Copy CRC FCA20417
Accurately ripped (confidence 1) [EB8BA6EF]
Copy OK

Track 2

Filename C:\Archivos de programa\Exact Audio Copy\Output\Ramones – End of the Century\02 – Ramones – I’m Affected.wav

Pre-gap length 0:00:01.33

Peak level 86.9 %
Track quality 100.0 %
Test CRC C1B51CCA
Copy CRC C1B51CCA
Accurately ripped (confidence 1) [8A523E33]
Copy OK

Track 3

Filename C:\Archivos de programa\Exact Audio Copy\Output\Ramones – End of the Century\03 – Ramones – Danny Says.wav

Pre-gap length 0:00:01.12

Peak level 93.2 %
Track quality 100.0 %
Test CRC 37AB6170
Copy CRC 37AB6170
Accurately ripped (confidence 1) [E72AE22C]
Copy OK

Track 4

Filename C:\Archivos de programa\Exact Audio Copy\Output\Ramones – End of the Century\04 – Ramones – Chinese Rock.wav

Pre-gap length 0:00:01.96

Peak level 87.9 %
Track quality 100.0 %
Test CRC A781D430
Copy CRC A781D430
Accurately ripped (confidence 1) [BDDC2C0B]
Copy OK

Track 5

Filename C:\Archivos de programa\Exact Audio Copy\Output\Ramones – End of the Century\05 – Ramones – The Return Of Jackie And Judy.wav

Pre-gap length 0:00:02.32

Peak level 87.3 %
Track quality 100.0 %
Test CRC D7BB318F
Copy CRC D7BB318F
Accurately ripped (confidence 1) [BFA50E7E]
Copy OK

Track 6

Filename C:\Archivos de programa\Exact Audio Copy\Output\Ramones – End of the Century\06 – Ramones – Let’s Go.wav

Pre-gap length 0:00:01.49

Peak level 88.5 %
Track quality 100.0 %
Test CRC CBEFDE02
Copy CRC CBEFDE02
Accurately ripped (confidence 1) [FFD5D826]
Copy OK

Track 7

Filename C:\Archivos de programa\Exact Audio Copy\Output\Ramones – End of the Century\07 – Ramones – Baby, I Love You.wav

Pre-gap length 0:00:01.96

Peak level 91.0 %
Track quality 99.9 %
Test CRC 97833060
Copy CRC 97833060
Accurately ripped (confidence 1) [6578E500]
Copy OK

Track 8

Filename C:\Archivos de programa\Exact Audio Copy\Output\Ramones – End of the Century\08 – Ramones – I Can’t Make It On Time.wav

Pre-gap length 0:00:01.82

Peak level 86.8 %
Track quality 99.9 %
Test CRC 91FF8690
Copy CRC 91FF8690
Accurately ripped (confidence 1) [1A6C2BAB]
Copy OK

Track 9

Filename C:\Archivos de programa\Exact Audio Copy\Output\Ramones – End of the Century\09 – Ramones – This Ain’t Havana.wav

Pre-gap length 0:00:00.86

Peak level 89.7 %
Track quality 100.0 %
Test CRC 4420FCA8
Copy CRC 4420FCA8
Accurately ripped (confidence 1) [F0C2F46F]
Copy OK

Track 10

Filename C:\Archivos de programa\Exact Audio Copy\Output\Ramones – End of the Century\10 – Ramones – Rock ‘N’ Roll High School.wav

Pre-gap length 0:00:00.06

Peak level 87.2 %
Track quality 100.0 %
Test CRC 09A7450A
Copy CRC 09A7450A
Accurately ripped (confidence 1) [833B2873]
Copy OK

Track 11

Filename C:\Archivos de programa\Exact Audio Copy\Output\Ramones – End of the Century\11 – Ramones – All The Way.wav

Pre-gap length 0:00:01.80

Peak level 86.9 %
Track quality 99.9 %
Test CRC 196A1E21
Copy CRC 196A1E21
Accurately ripped (confidence 1) [CAD94DFA]
Copy OK

Track 12

Filename C:\Archivos de programa\Exact Audio Copy\Output\Ramones – End of the Century\12 – Ramones – High Risk Insurance.wav

Pre-gap length 0:00:01.20

Peak level 88.1 %
Track quality 100.0 %
Test CRC CC2CE243
Copy CRC CC2CE243
Accurately ripped (confidence 1) [CC0DDC52]
Copy OK

All tracks accurately ripped

No errors occurred

End of status report

REM GENRE “Punk Rock”
REM DATE 1980
REM DISCID A108040C
REM COMMENT “ExactAudioCopy v0.99pb3”
PERFORMER “Ramones”
TITLE “End of the Century”
FILE “01 – Ramones – Do You Remember Rock ‘N’ Roll Radio .wav” WAVE
TRACK 01 AUDIO
TITLE “Do You Remember Rock ‘N’ Roll Radio?”
PERFORMER “Ramones”
PREGAP 00:00:32
INDEX 01 00:00:00
TRACK 02 AUDIO
TITLE “I’m Affected”
PERFORMER “Ramones”
INDEX 00 03:50:08
FILE “02 – Ramones – I’m Affected.wav” WAVE
INDEX 01 00:00:00
TRACK 03 AUDIO
TITLE “Danny Says”
PERFORMER “Ramones”
INDEX 00 02:51:33
FILE “03 – Ramones – Danny Says.wav” WAVE
INDEX 01 00:00:00
TRACK 04 AUDIO
TITLE “Chinese Rock”
PERFORMER “Ramones”
INDEX 00 03:06:46
FILE “04 – Ramones – Chinese Rock.wav” WAVE
INDEX 01 00:00:00
TRACK 05 AUDIO
TITLE “The Return Of Jackie And Judy”
PERFORMER “Ramones”
INDEX 00 02:28:48
FILE “05 – Ramones – The Return Of Jackie And Judy.wav” WAVE
INDEX 01 00:00:00
TRACK 06 AUDIO
TITLE “Let’s Go”
PERFORMER “Ramones”
INDEX 00 03:12:71
FILE “06 – Ramones – Let’s Go.wav” WAVE
INDEX 01 00:00:00
TRACK 07 AUDIO
TITLE “Baby, I Love You”
PERFORMER “Ramones”
INDEX 00 02:31:53
FILE “07 – Ramones – Baby, I Love You.wav” WAVE
INDEX 01 00:00:00
TRACK 08 AUDIO
TITLE “I Can’t Make It On Time”
PERFORMER “Ramones”
INDEX 00 03:47:48
FILE “08 – Ramones – I Can’t Make It On Time.wav” WAVE
INDEX 01 00:00:00
TRACK 09 AUDIO
TITLE “This Ain’t Havana”
PERFORMER “Ramones”
INDEX 00 02:32:35
FILE “09 – Ramones – This Ain’t Havana.wav” WAVE
INDEX 01 00:00:00
TRACK 10 AUDIO
TITLE “Rock ‘N’ Roll High School”
PERFORMER “Ramones”
INDEX 00 02:18:20
FILE “10 – Ramones – Rock ‘N’ Roll High School.wav” WAVE
INDEX 01 00:00:00
TRACK 11 AUDIO
TITLE “All The Way”
PERFORMER “Ramones”
INDEX 00 02:39:00
FILE “11 – Ramones – All The Way.wav” WAVE
INDEX 01 00:00:00
TRACK 12 AUDIO
TITLE “High Risk Insurance”
PERFORMER “Ramones”
INDEX 00 02:28:65
FILE “12 – Ramones – High Risk Insurance.wav” WAVE
INDEX 01 00:00:00

Leave a Reply

Your email address will not be published. Required fields are marked *

This site uses Akismet to reduce spam. Learn how your comment data is processed.