Ramones – End of the century (Remastered)




Artist: Ramones
Year: 1980/2002
Genre: Punk
Notes: Discogs
Add. Notes: Remastered
Cover incl.: Yes
Encoder: FLAC
Bitrate: ~1000 kBit/s (44.1 kHz/16 Bit/s)
Log & Cue incl.: Yes
Size: 515,76 MB
Password: “slam” (without ” “)


All Downloads/Hosters are compatible

Download 1
Turbobit.net
Rapidgator.net
UploadEver.com
KatFile.com
UsersDrive.com
Download 2
Turbobit.net
Rapidgator.net
UploadEver.com
KatFile.com
UsersDrive.com
Download 3
Turbobit.net
Rapidgator.net
UploadEver.com
KatFile.com
UsersDrive.com

Tracklist:

1 - Do You Remember Rock 'N' Roll Radio? - 3:50
2 - I'm Affected - 2:55
3 - Danny Says - 3:09
4 - Chinese Rock - 2:31
5 - The Return Of Jackie And Judy - 3:15
6 - Let's Go - 2:37
7 - Baby, I Love You - 3:51
8 - I Can't Make It On Time - 2:34
9 - This Ain't Havana - 2:19
10 - Rock 'N' Roll High School - 2:41
11 - All The Way - 2:29
12 - High Risk Insurance - 2:14
Bonus Tracks
13 - I Want You Around (Soundtrack Version) - 3:05
14 - Danny Says (Demo) - 2:19
15 - I'm Affected (Demo) - 2:47
16 - Please Don't Leave (Demo) - 2:22
17 - All The Way (Demo) - 2:31
18 - Do You Remember Rock 'N' Roll Radio? (Demo) - 3:43
19 - Untitled - 0:59

EAC-Log, CUE-Sheed & NFO:

Click to open spoiler
EAC extraction logfile from 24. July 2005, 23:54 for CD
Ramones / End Of The Century

Used drive : TOSHIBA ODD-DVD SD-M1802 Adapter: 1 ID: 1
Read mode : Secure with NO C2, accurate stream, disable cache
Read offset correction : 691
Overread into Lead-In and Lead-Out : No

Used output format : Internal WAV Routines
44.100 Hz; 16 Bit; Stereo

Other options :
Fill up missing offset samples with silence : Yes
Delete leading and trailing silent blocks : No
Installed external ASPI interface

Range status and errors
Selected range
Filename F:\mp3\Temp\CDImage.wav

Peak level 98.8 %
Range quality 100.0 %
CRC 1229EDC6
Copy OK

No errors occured

End of status report

CATALOG 0081227815523
PERFORMER “Ramones”
TITLE “End Of The Century”
FILE “CDImage.wav” WAVE
TRACK 01 AUDIO
TITLE “Do You Remember Rock ‘N’ Roll Radio?”
PERFORMER “Ramones”
ISRC USWB10201720
INDEX 01 00:00:00
TRACK 02 AUDIO
TITLE “I’m Affected”
PERFORMER “Ramones”
ISRC USWB10201721
INDEX 01 03:51:50
TRACK 03 AUDIO
TITLE “Danny Says”
PERFORMER “Ramones”
ISRC USWB10201722
INDEX 00 06:45:27
INDEX 01 06:46:60
TRACK 04 AUDIO
TITLE “Chinese Rock”
PERFORMER “Ramones”
ISRC USWB10201723
INDEX 00 09:53:67
INDEX 01 09:56:47
TRACK 05 AUDIO
TITLE “The Return Of Jack And Judy”
PERFORMER “Ramones”
ISRC USWB10201724
INDEX 00 12:24:60
INDEX 01 12:28:00
TRACK 06 AUDIO
TITLE “Let’s Go”
PERFORMER “Ramones”
ISRC USWB10201725
INDEX 00 15:40:10
INDEX 01 15:43:30
TRACK 07 AUDIO
TITLE “Baby, I Love You”
PERFORMER “Ramones”
ISRC USWB10201726
INDEX 01 18:20:45
TRACK 08 AUDIO
TITLE “I Can’t Make It On Time”
PERFORMER “Ramones”
ISRC USWB10201727
INDEX 00 22:09:50
INDEX 01 22:11:52
TRACK 09 AUDIO
TITLE “This Ain’t Havana”
PERFORMER “Ramones”
ISRC USWB10201728
INDEX 00 24:44:65
INDEX 01 24:46:02
TRACK 10 AUDIO
TITLE “Rock ‘N’ Roll High School”
PERFORMER “Ramones”
ISRC USWB10201729
INDEX 00 27:04:57
INDEX 01 27:05:62
TRACK 11 AUDIO
TITLE “All The Way”
PERFORMER “Ramones”
ISRC USWB10201730
INDEX 00 29:46:12
INDEX 01 29:47:17
TRACK 12 AUDIO
TITLE “High Risk Insurance”
PERFORMER “Ramones”
ISRC USWB10201731
INDEX 00 32:15:45
INDEX 01 32:17:12
TRACK 13 AUDIO
TITLE “I Want You Around (soundtrack version) (bonus track)”
PERFORMER “Ramones”
ISRC USWB10201732
INDEX 00 34:26:15
INDEX 01 34:31:57
TRACK 14 AUDIO
TITLE “Danny Says (demo) (bonus track)”
PERFORMER “Ramones”
ISRC USWB10201845
INDEX 00 37:35:57
INDEX 01 37:36:72
TRACK 15 AUDIO
TITLE “I’m Affected (demo) (bonus track)”
PERFORMER “Ramones”
ISRC USWB10201846
INDEX 01 39:56:50
TRACK 16 AUDIO
TITLE “Please Don’t Leave (demo) (bonus track)”
PERFORMER “Ramones”
ISRC USWB10201847
INDEX 00 42:42:20
INDEX 01 42:43:55
TRACK 17 AUDIO
TITLE “All The Way (demo) (bonus track)”
PERFORMER “Ramones”
ISRC USWB10201848
INDEX 00 45:04:56
INDEX 01 45:05:72
TRACK 18 AUDIO
TITLE “Do You Remember Rock ‘N’ Roll Radio? (demo) (bonus track)”
PERFORMER “Ramones”
ISRC USWB10201849
INDEX 00 47:35:35
INDEX 01 47:37:57
TRACK 19 AUDIO
TITLE “End Of The Century Radio Promo (bonus track)”
PERFORMER “Ramones”
INDEX 00 50:51:50
INDEX 01 51:21:17

Leave a Reply

Your email address will not be published. Required fields are marked *

This site uses Akismet to reduce spam. Learn how your comment data is processed.