Ramones – End Of The Century (Japanese Edition)




Artist: Ramones
Year: 1980
Genre: Punk
Notes: Discogs
Add. Notes: Japanese Edition
Encoder: FLAC
Bitrate: ~900 kBit/s (44.1 kHz/16 Bit/s)
Bin/Cue incl.: Yes
Size: 255,95 MB
Password: “slam” (without ” “)


http://www.share-online.biz/dl/X2IFKRRP7F
https://rapidgator.net/file/8b6f86a46c5862ed3dcaee98349373cf
https://uploadbyte.com/a54sfaz4v7m1
https://uploadever.com/x2igchlv57pt

Tracklist:

1 - Do You Remember Rock 'N' Roll Radio? - 3:50
2 - I'm Affected - 2:51
3 - Danny Says - 3:06
4 - Chinese Rock - 2:28
5 - The Return Of Jackie And Judy - 3:12
6 - Let's Go - 2:31
7 - Baby, I Love You - 3:47
8 - I Can't Make It On Time - 2:32
9 - This Ain't Havana - 2:18
10 - Rock'N'Roll High School - 2:38
11 - All The Way - 2:29
12 - High Risk Insurance - 2:08

EAC-Log, CUE-Sheed & NFO:

Click to open spoiler
Exact Audio Copy V1.0 beta 1 from 15. November 2010

EAC extraction logfile from 8. May 2011, 22:42

Ramones / End Of The Century (WPCP-3145)

Used drive : PLEXTOR CD-R PREMIUM2 Adapter: 8 ID: 0

Read mode : Secure
Utilize accurate stream : Yes
Defeat audio cache : Yes
Make use of C2 pointers : No

Read offset correction : 30
Overread into Lead-In and Lead-Out : No
Fill up missing offset samples with silence : Yes
Delete leading and trailing silent blocks : No
Null samples used in CRC calculations : Yes
Used interface : Installed external ASPI interface

Used output format : Internal WAV Routines
Sample format : 44.100 Hz; 16 Bit; Stereo

TOC of the extracted CD

Track | Start | Length | Start sector | End sector
———————————————————
1 | 0:00.00 | 3:52.27 | 0 | 17426
2 | 3:52.27 | 2:55.38 | 17427 | 30589
3 | 6:47.65 | 3:10.07 | 30590 | 44846
4 | 9:57.72 | 2:31.55 | 44847 | 56226
5 | 12:29.52 | 3:15.53 | 56227 | 70904
6 | 15:45.30 | 2:35.45 | 70905 | 82574
7 | 18:21.00 | 3:51.35 | 82575 | 99934
8 | 22:12.35 | 2:34.40 | 99935 | 111524
9 | 24:47.00 | 2:20.35 | 111525 | 122059
10 | 27:07.35 | 2:41.12 | 122060 | 134146
11 | 29:48.47 | 2:30.25 | 134147 | 145421
12 | 32:18.72 | 2:09.30 | 145422 | 155126

Range status and errors

Selected range

Filename C:\AvaxHome.ru\1st CD pressings [Japan 1990]\1980- End Of The Century [WPCP-3145]\Ramones – End Of The Century (WPCP-3145).wav

Peak level 95.6 %
Extraction speed 0.4 X
Range quality 100.0 %
Test CRC C26B5D2D
Copy CRC C26B5D2D
Copy OK

No errors occurred

AccurateRip summary

Track 1 accurately ripped (confidence 4) [6F58B77E]
Track 2 accurately ripped (confidence 4) [3E00447C]
Track 3 accurately ripped (confidence 4) [688774C3]
Track 4 accurately ripped (confidence 4) [E95563E8]
Track 5 accurately ripped (confidence 4) [E4F13694]
Track 6 accurately ripped (confidence 4) [0311828C]
Track 7 accurately ripped (confidence 4) [07FE8718]
Track 8 accurately ripped (confidence 4) [BF032A59]
Track 9 accurately ripped (confidence 4) [9D302D05]
Track 10 accurately ripped (confidence 4) [CB7A2146]
Track 11 accurately ripped (confidence 4) [E3539468]
Track 12 accurately ripped (confidence 4) [ACF462ED]

All tracks accurately ripped

End of status report

==== Log checksum 61D1FDBD624B8BC7CAF766512E6C9000EE61C2114BC295A47FEDA899987A36D8 ====

REM GENRE Rock
REM DATE 1980
REM DISCID A708140C
REM COMMENT “ExactAudioCopy v1.0b1”
PERFORMER “Ramones”
TITLE “End Of The Century (WPCP-3145)”
FILE “Ramones – End Of The Century (WPCP-3145).flac” WAVE
TRACK 01 AUDIO
TITLE “Do You Remember Rock ‘N’ Roll Radio?”
PERFORMER “Ramones”
INDEX 01 00:00:00
TRACK 02 AUDIO
TITLE “I’m Affected”
PERFORMER “Ramones”
INDEX 00 03:52:13
INDEX 01 03:52:27
TRACK 03 AUDIO
TITLE “Danny Says”
PERFORMER “Ramones”
INDEX 00 06:42:61
INDEX 01 06:47:65
TRACK 04 AUDIO
TITLE “Chinese Rock”
PERFORMER “Ramones”
INDEX 00 09:53:45
INDEX 01 09:57:72
TRACK 05 AUDIO
TITLE “The Return Of Jackie And Judy”
PERFORMER “Ramones”
INDEX 00 12:26:27
INDEX 01 12:29:52
TRACK 06 AUDIO
TITLE “Let’s Go”
PERFORMER “Ramones”
INDEX 00 15:39:39
INDEX 01 15:45:30
TRACK 07 AUDIO
TITLE “Baby, I Love You”
PERFORMER “Ramones”
INDEX 00 18:18:43
INDEX 01 18:21:00
TRACK 08 AUDIO
TITLE “I Can’t Make It On Time”
PERFORMER “Ramones”
INDEX 00 22:06:33
INDEX 01 22:12:35
TRACK 09 AUDIO
TITLE “This Ain’t Havana”
PERFORMER “Ramones”
INDEX 00 24:44:36
INDEX 01 24:47:00
TRACK 10 AUDIO
TITLE “Rock ‘N’ Roll High School”
PERFORMER “Ramones”
INDEX 00 27:05:33
INDEX 01 27:07:35
TRACK 11 AUDIO
TITLE “All The Way”
PERFORMER “Ramones”
INDEX 00 29:46:68
INDEX 01 29:48:47
TRACK 12 AUDIO
TITLE “High Risk Insurance”
PERFORMER “Ramones”
INDEX 00 32:16:15
INDEX 01 32:18:72

Leave a Reply

Your email address will not be published. Required fields are marked *

This site uses Akismet to reduce spam. Learn how your comment data is processed.