Ramones – Brain Drain




Artist: Ramones
Year: 1989
Genre: Punk
Notes: Discogs
Add. Notes:
Cover incl.: Yes
Encoder: FLAC
Bitrate: ~900 kBit/s (44.1 kHz/16 Bit/s)
Log & Cue incl.: Yes
Size: 250,43 MB
Password: “slam” (without ” “)


All Downloads/Hosters are compatible

Download 1
Turbobit.net
Rapidgator.net
UploadEver.com
JustUpload.io
UsersDrive.com
Download 2
Turbobit.net
Rapidgator.net
UploadEver.com
JustUpload.io
UsersDrive.com
Download 3
Turbobit.net
Rapidgator.net
UploadEver.com
JustUpload.io
UsersDrive.com

Tracklist:

1 - I Believe In Miracles - 3:19
2 - Zero Zero U.F.O. - 2:25
3 - Don't Bust My Chops - 2:28
4 - Punishment Fits The Crime - 3:05
5 - All Screwed Up - 3:59
6 - Palisades Park - 2:22
7 - Pet Sematary - 3:30
8 - Learn To Listen - 1:50
9 - Can't Get You Out Of My Mind - 3:21
10 - Ignorance Is Bliss - 2:38
11 - Come Back, Baby - 4:01
12 - Merry Christmas (I Don't Want To Fight Tonight) - 
2:04

EAC-Log, CUE-Sheed & NFO:

Click to open spoiler
Exact Audio Copy V0.99 prebeta 4 from 23. January 2008

EAC extraction logfile from 22. April 2008, 21:17

The Ramones / Brain Drain

Used drive : _NEC DVD_RW ND-3550A Adapter: 5 ID: 0

Read mode : Secure
Utilize accurate stream : Yes
Defeat audio cache : Yes
Make use of C2 pointers : No

Read offset correction : 48
Overread into Lead-In and Lead-Out : No
Fill up missing offset samples with silence : Yes
Delete leading and trailing silent blocks : No
Null samples used in CRC calculations : Yes
Used interface : Native Win32 interface for Win NT & 2000

Used output format : Internal WAV Routines
Sample format : 44.100 Hz; 16 Bit; Stereo

TOC of the extracted CD

Track | Start | Length | Start sector | End sector
———————————————————
1 | 0:00.00 | 3:20.20 | 0 | 15019
2 | 3:20.20 | 2:25.00 | 15020 | 25894
3 | 5:45.20 | 2:28.37 | 25895 | 37031
4 | 8:13.57 | 3:05.05 | 37032 | 50911
5 | 11:18.62 | 3:59.55 | 50912 | 68891
6 | 15:18.42 | 2:19.65 | 68892 | 79381
7 | 17:38.32 | 3:30.20 | 79382 | 95151
8 | 21:08.52 | 1:50.48 | 95152 | 103449
9 | 22:59.25 | 3:21.57 | 103450 | 118581
10 | 26:21.07 | 2:38.38 | 118582 | 130469
11 | 28:59.45 | 4:01.17 | 130470 | 148561
12 | 33:00.62 | 2:05.13 | 148562 | 157949

Range status and errors

Selected range

Filename D:\Downloads\The Ramones-Brain Drain\The Ramones – Brain Drain.wav

Peak level 93.7 %
Range quality 99.9 %
Copy CRC CFD4BDA7
Copy OK

No errors occurred

AccurateRip summary

Track 1 cannot be verified as accurate (confidence 3) [6DAA69BB], AccurateRip returned [3E5DF120]
Track 2 cannot be verified as accurate (confidence 3) [F9B3112D], AccurateRip returned [F958EA80]
Track 3 cannot be verified as accurate (confidence 3) [8E7B2986], AccurateRip returned [384ABEBA]
Track 4 cannot be verified as accurate (confidence 3) [9A50D7A9], AccurateRip returned [E7CD7D07]
Track 5 cannot be verified as accurate (confidence 3) [07DA3F8B], AccurateRip returned [13768E86]
Track 6 cannot be verified as accurate (confidence 3) [A037DC0E], AccurateRip returned [999C13B7]
Track 7 cannot be verified as accurate (confidence 3) [E508A57A], AccurateRip returned [4243E51E]
Track 8 cannot be verified as accurate (confidence 3) [4843F925], AccurateRip returned [3F734AF7]
Track 9 cannot be verified as accurate (confidence 3) [6D32BE88], AccurateRip returned [9B0191B7]
Track 10 cannot be verified as accurate (confidence 3) [2275AE96], AccurateRip returned [1DF302BF]
Track 11 cannot be verified as accurate (confidence 3) [FB433D9E], AccurateRip returned [C6832A96]
Track 12 cannot be verified as accurate (confidence 2) [58DDB3FA], AccurateRip returned [234AE4D3]

No tracks could be verified as accurate
You may have a different pressing from the one(s) in the database

End of status report

REM GENRE Punk
REM DATE 1989
REM DISCID 8F083A0C
REM COMMENT “ExactAudioCopy v0.99pb4”
PERFORMER “The Ramones”
TITLE “Brain Drain”
FILE “The Ramones – Brain Drain.ape” WAVE
TRACK 01 AUDIO
TITLE “I Believe in Miracles”
PERFORMER “The Ramones”
INDEX 01 00:00:00
TRACK 02 AUDIO
TITLE “Zero Zero UFO”
PERFORMER “The Ramones”
INDEX 01 03:20:20
TRACK 03 AUDIO
TITLE “Don’t Bust My Chops”
PERFORMER “The Ramones”
INDEX 01 05:45:20
TRACK 04 AUDIO
TITLE “Punishment Fits the Crime”
PERFORMER “The Ramones”
INDEX 01 08:13:57
TRACK 05 AUDIO
TITLE “All Screwed Up”
PERFORMER “The Ramones”
INDEX 01 11:18:62
TRACK 06 AUDIO
TITLE “Palisades Park”
PERFORMER “The Ramones”
INDEX 01 15:18:42
TRACK 07 AUDIO
TITLE “Pet Sematary”
PERFORMER “The Ramones”
INDEX 01 17:38:32
TRACK 08 AUDIO
TITLE “Learn to Listen”
PERFORMER “The Ramones”
INDEX 01 21:08:52
TRACK 09 AUDIO
TITLE “Can’t Get You Outta My Mind”
PERFORMER “The Ramones”
INDEX 01 22:59:25
TRACK 10 AUDIO
TITLE “Ignorance is Bliss”
PERFORMER “The Ramones”
INDEX 01 26:21:07
TRACK 11 AUDIO
TITLE “Come Back Baby”
PERFORMER “The Ramones”
INDEX 01 28:59:45
TRACK 12 AUDIO
TITLE “Merry Christmas (I Don’t Want to Fight Tonight)”
PERFORMER “The Ramones”
INDEX 01 33:00:62

Leave a Reply

Your email address will not be published. Required fields are marked *

Enter the text from the image below
 

This site uses Akismet to reduce spam. Learn how your comment data is processed.