Ramones – Animal Boy




Artist: Ramones
Year: 1986
Genre: Punk
Notes: Discogs
Add. Notes:
Cover incl.: Yes
Encoder: WavPack
Bitrate: ~900 kBit/s (44.1 kHz/16 Bit/s)
Log & Cue incl.: Yes
Size: 221,17 MB
Password: “slam” (without ” “)


All Downloads/Hosters are compatible

Download 1
Turbobit.net
Rapidgator.net
UploadEver.com
KatFile.com
UsersDrive.com
Download 2
Turbobit.net
Rapidgator.net
UploadEver.com
KatFile.com
UsersDrive.com
Download 3
Turbobit.net
Rapidgator.net
UploadEver.com
KatFile.com
UsersDrive.com

Tracklist:

1 - Somebody Put Something In My Drink - 3:23
2 - Animal Boy - 1:50
3 - Love Kills - 2:29
4 - Apeman Hop - 2:02
5 - She Belongs To Me - 3:54
6 - Crummy Stuff - 2:06
7 - My Brain Is Hanging Upside Down (Bonzo Goes To 
Bitburg) - 3:55
8 - Mental Hell - 2:38
9 - Eat That Rat - 1:37
10 - Freak Of Nature - 1:32
11 - Hair Of The Dog - 2:19
12 - Something To Believe In - 4:09

EAC-Log, CUE-Sheed & NFO:

Click to open spoiler
Exact Audio Copy V0.99 prebeta 5 from 4. May 2009

EAC extraction logfile from 12. June 2010, 2:21

Ramones / Animal Boy

Used drive : PIONEER DVD-RW DVR-116D Adapter: 1 ID: 0

Read mode : Secure
Utilize accurate stream : Yes
Defeat audio cache : Yes
Make use of C2 pointers : No

Read offset correction : 96
Overread into Lead-In and Lead-Out : No
Fill up missing offset samples with silence : Yes
Delete leading and trailing silent blocks : No
Null samples used in CRC calculations : Yes
Used interface : Installed external ASPI interface

Used output format : Internal WAV Routines
Sample format : 44.100 Hz; 16 Bit; Stereo

TOC of the extracted CD

Track | Start | Length | Start sector | End sector
———————————————————
1 | 0:00.32 | 3:25.58 | 32 | 15464
2 | 3:26.15 | 1:52.25 | 15465 | 23889
3 | 5:18.40 | 2:20.67 | 23890 | 34456
4 | 7:39.32 | 2:04.08 | 34457 | 43764
5 | 9:43.40 | 3:55.27 | 43765 | 61416
6 | 13:38.67 | 2:06.25 | 61417 | 70891
7 | 15:45.17 | 3:58.68 | 70892 | 88809
8 | 19:44.10 | 2:39.70 | 88810 | 100804
9 | 22:24.05 | 1:38.67 | 100805 | 108221
10 | 24:02.72 | 1:33.43 | 108222 | 115239
11 | 25:36.40 | 2:21.35 | 115240 | 125849
12 | 27:58.00 | 4:07.17 | 125850 | 144391

Range status and errors

Selected range

Filename C:\AvaxHome.ru\1986- Animal Boy (9 25433-2)\Ramones – Animal Boy (Orig).wav

Peak level 100.0 %
Range quality 100.0 %
Test CRC D7006D93
Copy CRC D7006D93
Copy OK

No errors occurred

AccurateRip summary

Track 1 accurately ripped (confidence 6) [041B89DE]
Track 2 accurately ripped (confidence 6) [ABB825C7]
Track 3 accurately ripped (confidence 6) [ADD655CC]
Track 4 accurately ripped (confidence 6) [95F51D8D]
Track 5 accurately ripped (confidence 6) [EB51D9E4]
Track 6 accurately ripped (confidence 6) [65AF1C7D]
Track 7 accurately ripped (confidence 6) [4E38FC3C]
Track 8 accurately ripped (confidence 6) [E62C6051]
Track 9 accurately ripped (confidence 6) [975C8264]
Track 10 accurately ripped (confidence 6) [E2318FF7]
Track 11 accurately ripped (confidence 6) [8341F82F]
Track 12 accurately ripped (confidence 6) [5F0FB42E]

All tracks accurately ripped

End of status report

REM GENRE “Punk Rock”
REM DATE 1986
REM DISCID 9707850C
REM COMMENT “ExactAudioCopy v0.99pb5”
CATALOG 0075992543323
PERFORMER “Ramones”
TITLE “Animal Boy”
FILE “Ramones – Animal Boy (Orig).wv” WAVE
TRACK 01 AUDIO
TITLE “Somebody Put Something In My Drink”
PERFORMER “Ramones”
INDEX 00 00:00:00
INDEX 01 00:00:32
TRACK 02 AUDIO
TITLE “Animal Boy”
PERFORMER “Ramones”
INDEX 00 03:21:35
INDEX 01 03:26:15
TRACK 03 AUDIO
TITLE “Love Kills”
PERFORMER “Ramones”
INDEX 00 05:14:65
INDEX 01 05:18:40
TRACK 04 AUDIO
TITLE “Apeman Hop”
PERFORMER “Ramones”
INDEX 00 07:37:00
INDEX 01 07:39:32
TRACK 05 AUDIO
TITLE “She Belongs To Me”
PERFORMER “Ramones”
INDEX 00 09:40:37
INDEX 01 09:43:40
TRACK 06 AUDIO
TITLE “Crummy Stuff”
PERFORMER “Ramones”
INDEX 00 13:35:05
INDEX 01 13:38:67
TRACK 07 AUDIO
TITLE “My Brain Is Hanging Upside Down (Bonzo Goes To Bitburg)”
PERFORMER “Ramones”
INDEX 00 15:43:15
INDEX 01 15:45:17
TRACK 08 AUDIO
TITLE “Mental Hell”
PERFORMER “Ramones”
INDEX 00 19:40:37
INDEX 01 19:44:10
TRACK 09 AUDIO
TITLE “Eat That Rat”
PERFORMER “Ramones”
INDEX 00 22:20:45
INDEX 01 22:24:05
TRACK 10 AUDIO
TITLE “Freak Of Nature”
PERFORMER “Ramones”
INDEX 00 24:00:10
INDEX 01 24:02:72
TRACK 11 AUDIO
TITLE “Hair Of The Dog”
PERFORMER “Ramones”
INDEX 00 25:33:05
INDEX 01 25:36:40
TRACK 12 AUDIO
TITLE “Something To Believe In”
PERFORMER “Ramones”
INDEX 00 27:52:55
INDEX 01 27:58:00

Leave a Reply

Your email address will not be published. Required fields are marked *

This site uses Akismet to reduce spam. Learn how your comment data is processed.