Ramones – ¡Adios Amigos!




Artist: Ramones
Year: 1995
Genre: Punk
Notes: Discogs
Add. Notes:
Cover incl.: Yes
Encoder: FLAC
Bitrate: ~1000 kBit/s (44.1 kHz/16 Bit/s)
Log & Cue incl.: Yes
Size: 326,64 MB
Password: “slam” (without ” “)


All Downloads/Hosters are compatible

Download 1
Turbobit.net
Rapidgator.net
KatFile.com
UsersDrive.com
CloudShare.to
Download 2
Turbobit.net
Rapidgator.net
KatFile.com
UsersDrive.com
CloudShare.to
Download 3
Turbobit.net
Rapidgator.net
KatFile.com
UsersDrive.com
CloudShare.to

Tracklist:

1 - I Don't Want To Grow Up - 2:43
2 - Makin Monsters For My Friends - 2:33
3 - It's Not For Me To Know - 2:50
4 - The Crusher - 2:24
5 - Life's A Gas - 3:35
6 - Take The Pain Away - 2:40
7 - I Love You - 2:21
8 - Cretin Family - 2:08
9 - Have A Nice Day - 1:41
10 - Scattergun - 2:30
11 - Got A Lot To Say - 1:42
12 - She Talks To Rainbows - 3:13
13a - Born To Die In Berlin - 3:46
13b - Spider-Man - 2:03

EAC-Log, CUE-Sheed & NFO:

Click to open spoiler
Exact Audio Copy V0.99 prebeta 1 from 25. May 2007

EAC extraction logfile from 1. February 2008, 19:14

The Ramones / ¡Adios Amigos!

Used drive : TOSHIBA ODD-DVD SD-R6372 Adapter: 1 ID: 0

Read mode : Secure
Utilize accurate stream : Yes
Defeat audio cache : Yes
Make use of C2 pointers : No

Read offset correction : 116
Overread into Lead-In and Lead-Out : No
Fill up missing offset samples with silence : Yes
Delete leading and trailing silent blocks : No
Used interface : Native Win32 interface for Win NT & 2000
Gap handling : Appended to previous track

Used output format : User Defined Encoder
Selected bitrate : 768 kBit/s
Quality : High
Add ID3 tag : Yes
Command line compressor : C:\Program Files\FLAC\flac.exe
Additional command line options : -V -8 -T “artist=%a” -T “title=%t” -T “album=%g” -T “date=%y” -T “tracknumber=%n” %s

TOC of the extracted CD

Track | Start | Length | Start sector | End sector
———————————————————
1 | 0:00.00 | 2:45.34 | 0 | 12408
2 | 2:45.34 | 2:35.61 | 12409 | 24094
3 | 5:21.20 | 2:51.70 | 24095 | 36989
4 | 8:13.15 | 2:27.05 | 36990 | 48019
5 | 10:40.20 | 3:34.32 | 48020 | 64101
6 | 14:14.52 | 2:42.60 | 64102 | 76311
7 | 16:57.37 | 2:21.08 | 76312 | 86894
8 | 19:18.45 | 2:09.50 | 86895 | 96619
9 | 21:28.20 | 1:39.02 | 96620 | 104046
10 | 23:07.22 | 2:30.32 | 104047 | 115328
11 | 25:37.54 | 1:41.43 | 115329 | 122946
12 | 27:19.22 | 3:14.53 | 122947 | 137549
13 | 30:34.00 | 3:32.05 | 137550 | 153454

Track 1

Filename C:\Hi there RIAA, What’s up IFPI\The Ramones – ¡Adios Amigos!\01 – I Don’t Want To Grow Up.wav

Pre-gap length 0:00:02.00

Peak level 100.0 %
Track quality 100.0 %
Test CRC 73CAACCC
Copy CRC 73CAACCC
Track not present in AccurateRip database
Copy OK

Track 2

Filename C:\Hi there RIAA, What’s up IFPI\The Ramones – ¡Adios Amigos!\02 – Makin Monsters For My Friends.wav

Pre-gap length 0:00:00.63

Peak level 100.0 %
Track quality 100.0 %
Test CRC 1E28C7DD
Copy CRC 1E28C7DD
Track not present in AccurateRip database
Copy OK

Track 3

Filename C:\Hi there RIAA, What’s up IFPI\The Ramones – ¡Adios Amigos!\03 – It’s Not For Me To Know.wav

Pre-gap length 0:00:00.56

Peak level 100.0 %
Track quality 100.0 %
Test CRC D5AC1A23
Copy CRC D5AC1A23
Track not present in AccurateRip database
Copy OK

Track 4

Filename C:\Hi there RIAA, What’s up IFPI\The Ramones – ¡Adios Amigos!\04 – The Crusher.wav

Pre-gap length 0:00:01.42

Peak level 100.0 %
Track quality 99.9 %
Test CRC EA0AAB07
Copy CRC EA0AAB07
Track not present in AccurateRip database
Copy OK

Track 5

Filename C:\Hi there RIAA, What’s up IFPI\The Ramones – ¡Adios Amigos!\05 – Life’s A Gas.wav

Pre-gap length 0:00:01.18

Peak level 100.0 %
Track quality 100.0 %
Test CRC B26C323A
Copy CRC B26C323A
Track not present in AccurateRip database
Copy OK

Track 6

Filename C:\Hi there RIAA, What’s up IFPI\The Ramones – ¡Adios Amigos!\06 – Take The Pain Away.wav

Pre-gap length 0:00:00.21

Peak level 100.0 %
Track quality 100.0 %
Test CRC D434699F
Copy CRC D434699F
Track not present in AccurateRip database
Copy OK

Track 7

Filename C:\Hi there RIAA, What’s up IFPI\The Ramones – ¡Adios Amigos!\07 – I Love You.wav

Pre-gap length 0:00:00.24

Peak level 100.0 %
Track quality 99.9 %
Test CRC B38BA52E
Copy CRC B38BA52E
Track not present in AccurateRip database
Copy OK

Track 8

Filename C:\Hi there RIAA, What’s up IFPI\The Ramones – ¡Adios Amigos!\08 – Cretin Family.wav

Pre-gap length 0:00:01.02

Peak level 100.0 %
Track quality 100.0 %
Test CRC 2D0A889B
Copy CRC 2D0A889B
Track not present in AccurateRip database
Copy OK

Track 9

Filename C:\Hi there RIAA, What’s up IFPI\The Ramones – ¡Adios Amigos!\09 – Have A Nice Day.wav

Pre-gap length 0:00:00.67

Peak level 100.0 %
Track quality 100.0 %
Test CRC 220E9BA0
Copy CRC 220E9BA0
Track not present in AccurateRip database
Copy OK

Track 10

Filename C:\Hi there RIAA, What’s up IFPI\The Ramones – ¡Adios Amigos!\10 – Scattergun.wav

Peak level 100.0 %
Track quality 99.9 %
Test CRC 77F0B6B3
Copy CRC 77F0B6B3
Track not present in AccurateRip database
Copy OK

Track 11

Filename C:\Hi there RIAA, What’s up IFPI\The Ramones – ¡Adios Amigos!\11 – Got Alot To Say.wav

Pre-gap length 0:00:01.14

Peak level 100.0 %
Track quality 100.0 %
Test CRC CA217C75
Copy CRC CA217C75
Track not present in AccurateRip database
Copy OK

Track 12

Filename C:\Hi there RIAA, What’s up IFPI\The Ramones – ¡Adios Amigos!\12 – She Talks To Rainbows.wav

Pre-gap length 0:00:01.60

Peak level 100.0 %
Track quality 100.0 %
Test CRC 324DA02B
Copy CRC 324DA02B
Track not present in AccurateRip database
Copy OK

Track 13

Filename C:\Hi there RIAA, What’s up IFPI\The Ramones – ¡Adios Amigos!\13 – Born To Die In Berlin.wav

Pre-gap length 0:00:01.42

Peak level 100.0 %
Track quality 100.0 %
Test CRC 9A855160
Copy CRC 9A855160
Track not present in AccurateRip database
Copy OK

No errors occurred

End of status report

REM DATE 1995
REM DISCID AD07FE0D
REM COMMENT “ExactAudioCopy v0.99pb1”
PERFORMER “The Ramones”
TITLE “¡Adios Amigos!”
FILE “01 – I Don’t Want To Grow Up.flac” WAVE
TRACK 01 AUDIO
TITLE “I Don’t Want To Grow Up”
PERFORMER “The Ramones”
INDEX 01 00:00:00
TRACK 02 AUDIO
TITLE “Makin Monsters For My Friends”
PERFORMER “The Ramones”
INDEX 00 02:44:46
FILE “02 – Makin Monsters For My Friends.flac” WAVE
INDEX 01 00:00:00
TRACK 03 AUDIO
TITLE “It’s Not For Me To Know”
PERFORMER “The Ramones”
INDEX 00 02:35:05
FILE “03 – It’s Not For Me To Know.flac” WAVE
INDEX 01 00:00:00
TRACK 04 AUDIO
TITLE “The Crusher”
PERFORMER “The Ramones”
INDEX 00 02:50:28
FILE “04 – The Crusher.flac” WAVE
INDEX 01 00:00:00
TRACK 05 AUDIO
TITLE “Life’s A Gas”
PERFORMER “The Ramones”
INDEX 00 02:25:62
FILE “05 – Life’s A Gas.flac” WAVE
INDEX 01 00:00:00
TRACK 06 AUDIO
TITLE “Take The Pain Away”
PERFORMER “The Ramones”
INDEX 00 03:34:11
FILE “06 – Take The Pain Away.flac” WAVE
INDEX 01 00:00:00
TRACK 07 AUDIO
TITLE “I Love You”
PERFORMER “The Ramones”
INDEX 00 02:42:36
FILE “07 – I Love You.flac” WAVE
INDEX 01 00:00:00
TRACK 08 AUDIO
TITLE “Cretin Family”
PERFORMER “The Ramones”
INDEX 00 02:20:06
FILE “08 – Cretin Family.flac” WAVE
INDEX 01 00:00:00
TRACK 09 AUDIO
TITLE “Have A Nice Day”
PERFORMER “The Ramones”
INDEX 00 02:08:58
FILE “09 – Have A Nice Day.flac” WAVE
INDEX 01 00:00:00
FILE “10 – Scattergun.flac” WAVE
TRACK 10 AUDIO
TITLE “Scattergun”
PERFORMER “The Ramones”
INDEX 01 00:00:00
TRACK 11 AUDIO
TITLE “Got Alot To Say”
PERFORMER “The Ramones”
INDEX 00 02:29:18
FILE “11 – Got Alot To Say.flac” WAVE
INDEX 01 00:00:00
TRACK 12 AUDIO
TITLE “She Talks To Rainbows”
PERFORMER “The Ramones”
INDEX 00 01:39:58
FILE “12 – She Talks To Rainbows.flac” WAVE
INDEX 01 00:00:00
TRACK 13 AUDIO
TITLE “Born To Die In Berlin”
PERFORMER “The Ramones”
INDEX 00 03:13:11
FILE “13 – Born To Die In Berlin.flac” WAVE
INDEX 01 00:00:00

Leave a Reply

Your email address will not be published. Required fields are marked *

Enter the text from the image below
 

This site uses Akismet to reduce spam. Learn how your comment data is processed.