Ramones – Adios amigos (Remastered)




Artist: Ramones
Year: 1995/2004
Genre: Rock
Notes: Discogs
Add. Notes: Remastered
Encoder: FLAC
Bitrate: ~1100 kBit/s (44.1 kHz/16 Bit/s)
Bin/Cue incl.: Yes
Size: 310,36 MB
Password: “slam” (without ” “)


http://www.share-online.biz/dl/Z3IGKRRPGW
https://rapidgator.net/file/476f59f3da64ec8aff0e9e7eca53cede
https://uploadbyte.com/xf6jvso7omx8
https://uploadever.com/aufgm0cfi25t

Tracklist:

1 - I Don't Want To Grow Up 
2 - Makin Monsters For My Friends 
3 - It's Not For Me To Know  
4 - The Crusher 
5 - Life's A Gas  
6 - Take The Pain Away 
7 - I Love You 
8 - Cretin Family 
9 - Have A Nice Day 
10 - Scattergun 
11 - Got A Lot To Say 
12 - She Talks To Rainbows 
13 - Born To Die In Berlin  
Bonus Track
14 - R.A.M.O.N.E.S.

EAC-Log, CUE-Sheed & NFO:

Click to open spoiler
EAC extraction logfile from 4. September 2006, 20:12 for CD
Ramones / Adios Amigos

Used drive : TOSHIBA ODD-DVD SD-M1802 Adapter: 1 ID: 1
Read mode : Secure with NO C2, accurate stream, disable cache
Read offset correction : 691
Overread into Lead-In and Lead-Out : No

Used output format : Internal WAV Routines
44.100 Hz; 16 Bit; Stereo

Other options :
Fill up missing offset samples with silence : Yes
Delete leading and trailing silent blocks : No
Installed external ASPI interface

Range status and errors
Selected range
Filename F:\mp3\temp\Ramones.wav

Peak level 97.7 %
Range quality 100.0 %
CRC 0440C626
Copy OK

No errors occured

End of status report

REM GENRE “Punk Rock”
REM DATE 1995
REM DISCID BA08520E
REM COMMENT “ExactAudioCopy v0.95b4”
PERFORMER “Ramones”
TITLE “Adios Amigos”
FILE “Ramones.flac” WAVE
TRACK 01 AUDIO
TITLE “I Don’t Want To Grow Up”
PERFORMER “Ramones”
INDEX 01 00:00:00
TRACK 02 AUDIO
TITLE “Makin Monsters For My Friends”
PERFORMER “Ramones”
INDEX 01 02:45:38
TRACK 03 AUDIO
TITLE “It’s Not For Me To Know”
PERFORMER “Ramones”
INDEX 01 05:21:28
TRACK 04 AUDIO
TITLE “The Crusher”
PERFORMER “Ramones”
INDEX 01 08:13:13
TRACK 05 AUDIO
TITLE “Life’s A Gas”
PERFORMER “Ramones”
INDEX 01 10:40:14
TRACK 06 AUDIO
TITLE “Take The Pain Away”
PERFORMER “Ramones”
INDEX 01 14:14:46
TRACK 07 AUDIO
TITLE “I Love You”
PERFORMER “Ramones”
INDEX 01 16:57:41
TRACK 08 AUDIO
TITLE “Cretin Family”
PERFORMER “Ramones”
INDEX 01 19:18:39
TRACK 09 AUDIO
TITLE “Have A Nice Day”
PERFORMER “Ramones”
INDEX 01 21:28:22
TRACK 10 AUDIO
TITLE “Scattergun”
PERFORMER “Ramones”
INDEX 01 23:07:33
TRACK 11 AUDIO
TITLE “Got Alot To Say”
PERFORMER “Ramones”
INDEX 01 25:37:53
TRACK 12 AUDIO
TITLE “She Talks To Rainbows”
PERFORMER “Ramones”
INDEX 01 27:19:11
TRACK 13 AUDIO
TITLE “Born To Die In Berlin”
PERFORMER “Ramones”
INDEX 01 30:33:66
TRACK 14 AUDIO
TITLE “Ramones”
PERFORMER “Ramones”
INDEX 01 34:06:18

Leave a Reply

Your email address will not be published. Required fields are marked *

Enter the text from the image below
 

This site uses Akismet to reduce spam. Learn how your comment data is processed.