Ramones – Acid Eaters




Artist: Ramones
Year: 1993
Genre: Punk
Notes: Discogs
Add. Notes:
Cover incl.: Yes
Encoder: FLAC
Bitrate: ~1000 kBit/s (44.1 kHz/16 Bit/s)
Log & Cue incl.: Yes
Size: 238,52 MB
Password: “slam” (without ” “)


All Downloads/Hosters are compatible

Download 1
Turbobit.net
Rapidgator.net
UploadEver.com
KatFile.com
UsersDrive.com
Download 2
Turbobit.net
Rapidgator.net
UploadEver.com
KatFile.com
UsersDrive.com
Download 3
Turbobit.net
Rapidgator.net
UploadEver.com
KatFile.com
UsersDrive.com

Tracklist:

1 - Journey To The Center Of The Mind - 2:52
2 - Substitute - 3:15
3 - Out Of Time - 2:41
4 - The Shape Of Things To Come - 1:45
5 - Somebody To Love - 2:32
6 - When I Was Young - 3:16
7 - 7 And 7 Is - 1:51
8 - My Back Pages - 2:27
9 - Can't Seen To Make You Mine - 2:42
10 - Have You Ever Seen The Rain - 2:22
11 - I Can't Control Myself - 2:26
12 - Surf City - 2:27

EAC-Log, CUE-Sheed & NFO:

Click to open spoiler
EAC extraction logfile from 1. February 2006, 13:00 for CD
Ramones / Acid Eaters

Used drive : TOSHIBA ODD-DVD SD-M1802 Adapter: 1 ID: 1
Read mode : Secure with NO C2, accurate stream, disable cache
Read offset correction : 691
Overread into Lead-In and Lead-Out : No

Used output format : Internal WAV Routines
44.100 Hz; 16 Bit; Stereo

Other options :
Fill up missing offset samples with silence : Yes
Delete leading and trailing silent blocks : No
Installed external ASPI interface

Range status and errors
Selected range
Filename F:\mp3\Temp\Acid.wav

Peak level 100.0 %
Range quality 100.0 %
CRC 9E6CEFDB
Copy OK

No errors occured

End of status report

REM GENRE Rock
REM DATE 1993
REM DISCID AA074E0C
REM COMMENT “ExactAudioCopy v0.95b3”
PERFORMER “Ramones”
TITLE “Acid Eaters”
FILE “Acid.flac” WAVE
TRACK 01 AUDIO
TITLE “Journey To The Center Of The Mind”
PERFORMER “Ramones”
INDEX 01 00:00:00
TRACK 02 AUDIO
TITLE “Substitute”
PERFORMER “Ramones”
INDEX 01 02:52:37
TRACK 03 AUDIO
TITLE “Out Of Time”
PERFORMER “Ramones”
INDEX 00 06:07:72
INDEX 01 06:08:00
TRACK 04 AUDIO
TITLE “The Shape Of Things To Come”
PERFORMER “Ramones”
INDEX 01 08:49:30
TRACK 05 AUDIO
TITLE “Somebody To Love”
PERFORMER “Ramones”
INDEX 00 10:35:57
INDEX 01 10:36:00
TRACK 06 AUDIO
TITLE “When I Was Young”
PERFORMER “Ramones”
INDEX 00 13:07:57
INDEX 01 13:07:65
TRACK 07 AUDIO
TITLE “7 And 7 Is”
PERFORMER “Ramones”
INDEX 01 16:24:07
TRACK 08 AUDIO
TITLE “My Back Pages”
PERFORMER “Ramones”
INDEX 01 18:14:67
TRACK 09 AUDIO
TITLE “Can’t Seem To Make You Mine”
PERFORMER “Ramones”
INDEX 00 20:42:37
INDEX 01 20:42:62
TRACK 10 AUDIO
TITLE “Have You Ever Seen The Rain”
PERFORMER “Ramones”
INDEX 00 23:25:22
INDEX 01 23:25:35
TRACK 11 AUDIO
TITLE “I Can’t Control Myself”
PERFORMER “Ramones”
INDEX 01 25:47:65
TRACK 12 AUDIO
TITLE “Surf City”
PERFORMER “Ramones”
INDEX 01 28:43:55

Leave a Reply

Your email address will not be published. Required fields are marked *

This site uses Akismet to reduce spam. Learn how your comment data is processed.