Rammstein – xXx (Bootleg)




Artist: Rammstein
Year: 2003
Genre: Alternative
Notes: Discogs
Add. Notes: Bootleg
Cover incl.: Yes
Encoder: FLAC
Bitrate: ~1000 kBit/s (44.1 kHz/16 Bit/s)
Log & Cue incl.: Yes
Size: 490,21 MB
Password: “slam” (without ” “)


All Downloads/Hosters are compatible

Download 1
Turbobit.net
Rapidgator.net
KatFile.com
UploadRar.com
Download 2
Turbobit.net
Rapidgator.net
KatFile.com
UploadRar.com
Download 3
Turbobit.net
Rapidgator.net
KatFile.com
UploadRar.com

Tracklist:

1. XXX (Feuer Frei) (Rammstein vs. Junkie XL Remix). 
2. Mutter (Vocoder Mix). 
3. Ich Will (Paul Van Dyk Dup Remix). 
4. Links 2-3-4 (Clawfinger Geradeaus Remix). 
5. Sonne (Clawfinger K.O. Remix). 
6. Du Hast (Clawfinger Remix). 
7. Rammstein (Eskimos & Egypt Remix). 
8. Stripped (Heavy Metal Mix). 
9. Angel (DJ Victor Speed Metal House Mix) 
10. Spookshow Baby (Rob Zombie & Rammstein)
11. God God (Korn & Rammstein Remix)
12. Last Cup Of Sorrow (Faith No More & Rammstein Remix)
13. Du Ritchst So Gut (Günter Schulz Mix). 
14. Küss Mich (Fellrosch Remix). 
15. 5/4 (New Hits). 
16. Halleluja (New Hits). 
17. Feuer Frei! (Rammstein Remix 130)

EAC-Log, CUE-Sheed & NFO:

Click to open spoiler
Exact Audio Copy V0.99 prebeta 4 from 23. January 2008

Отчёт EAC об извлечении, выполненном 26. января 2009, 20:31

Rammstein / xXx

Дисковод: Optiarc DVD RW AD-7170S Adapter: 0 ID: 1

Режим чтения : Достоверность
Использование точного потока : Да
Отключение кэша аудио : Да
Использование указателей C2 : Нет

Коррекция смещения при чтении : 48
Способность читать области Lead-in и Lead-out : Нет
Заполнение пропущенных сэмплов тишиной : Да
Удаление блоков с тишиной в начале и конце : Нет
При вычислениях CRC использовались нулевые сэмплы : Да
Интерфейс : Установленный внешний ASPI-интерфейс

Выходной формат : Внутренние WAV-операции
Формат сэмплов : 44.100 Гц; 16 бит; стерео

TOC извлечённого CD

Трек | Старт | Длительность | Начальный сектор | Конечный сектор
———————————————————————
1 | 0:00.00 | 4:08.54 | 0 | 18653
2 | 4:08.54 | 4:32.16 | 18654 | 39069
3 | 8:40.70 | 5:13.48 | 39070 | 62592
4 | 13:54.43 | 4:27.33 | 62593 | 82650
5 | 18:22.01 | 4:08.10 | 82651 | 101260
6 | 22:30.11 | 5:22.73 | 101261 | 125483
7 | 27:53.09 | 3:08.41 | 125484 | 139624
8 | 31:01.50 | 4:35.62 | 139625 | 160311
9 | 35:37.37 | 3:25.73 | 160312 | 175759
10 | 39:03.35 | 4:04.20 | 175760 | 194079
11 | 43:07.55 | 3:35.62 | 194080 | 210266
12 | 46:43.42 | 3:31.58 | 210267 | 226149
13 | 50:15.25 | 3:59.04 | 226150 | 244078
14 | 54:14.29 | 3:29.46 | 244079 | 259799
15 | 57:44.00 | 5:29.45 | 259800 | 284519
16 | 63:13.45 | 3:42.05 | 284520 | 301174
17 | 66:55.50 | 3:42.23 | 301175 | 317847

Характеристики диапазона извлечения и сообщения об ошибках

Выбранный диапазон

Имя файла C:\Documents and Settings\Admin\Мои документы\Rammstein – xXx.wav

Пиковый уровень 96.6 %
Качество диапазона 99.9 %
CRC копии EA9E2C6B
Копирование… OK

Ошибок не произошло

Конец отчёта

REM GENRE Alternative
REM DATE 2003
REM DISCID EF108D11
REM COMMENT “ExactAudioCopy v0.99pb4”
PERFORMER “Rammstein”
TITLE “xXx”
FILE “Rammstein – xXx.wav” WAVE
TRACK 01 AUDIO
TITLE “xXx (Feuer Frei!) (Rammstein Vs. Junkie Xl Remix)”
PERFORMER “Rammstein”
INDEX 01 00:00:00
TRACK 02 AUDIO
TITLE “Mutter (Vocoder Mix)”
PERFORMER “Rammstein”
INDEX 01 04:08:54
TRACK 03 AUDIO
TITLE “Ich Will (PaulVan Dyk Dup Mix)”
PERFORMER “Rammstein”
INDEX 01 08:40:70
TRACK 04 AUDIO
TITLE “Links 2-3-4 (Clawfinger Remix)”
PERFORMER “Rammstein”
INDEX 01 13:54:43
TRACK 05 AUDIO
TITLE “Sonne (Clawfinger K.O Remix)”
PERFORMER “Rammstein”
INDEX 01 18:22:01
TRACK 06 AUDIO
TITLE “Du Hast (Clawfinger Remix)”
PERFORMER “Rammstein”
INDEX 01 22:30:11
TRACK 07 AUDIO
TITLE “Rammstein (Eskimos & Egypt Remix”
PERFORMER “Rammstein”
INDEX 01 27:53:09
TRACK 08 AUDIO
TITLE “Stripped (Heavy Metal Mix)”
PERFORMER “Rammstein”
INDEX 01 31:01:50
TRACK 09 AUDIO
TITLE “Angel (Dj. Victor Speed Metal House Mix)”
PERFORMER “Rammstein”
INDEX 01 35:37:37
TRACK 10 AUDIO
TITLE “Spookshow Baby (Rob Zombie & Rammstein Mix)”
PERFORMER “Rammstein”
INDEX 01 39:03:35
TRACK 11 AUDIO
TITLE “God God (Korn &Rammstein Remix)”
PERFORMER “Rammstein”
INDEX 01 43:07:55
TRACK 12 AUDIO
TITLE “Last Cup Of Sorrow (Faith No More & Rammstein Mix)”
PERFORMER “Rammstein”
INDEX 01 46:43:42
TRACK 13 AUDIO
TITLE “Du Riechst So Gut (Gunter Shultz Mix)”
PERFORMER “Rammstein”
INDEX 01 50:15:25
TRACK 14 AUDIO
TITLE “Kuss Mich (FellRosch Remix)”
PERFORMER “Rammstein”
INDEX 01 54:14:29
TRACK 15 AUDIO
TITLE “5/4 (New Hits)”
PERFORMER “Rammstein”
INDEX 01 57:44:00
TRACK 16 AUDIO
TITLE “Halleluja (New Hits)”
PERFORMER “Rammstein”
INDEX 01 63:13:45
TRACK 17 AUDIO
TITLE “Feuer Frei! (Rammstein Remix 130)”
PERFORMER “Rammstein”
INDEX 01 66:55:50


Leave a Reply

Your email address will not be published. Required fields are marked *

This site uses Akismet to reduce spam. Learn how your comment data is processed.