Rammstein – Völkerball (Limited Edition)




Artist: Rammstein
Year: 2006
Genre: Rock
Notes: Discogs
Add. Notes: Limited Edition
Encoder: FLAC
Bitrate: ~1000 kBit/s (44.1 kHz/16 Bit/s)
Size: 861,72 MB
Password: “slam” (without ” “)


http://www.share-online.biz/dl/UCQ37ZQPPHQT
http://www.share-online.biz/dl/V5437ZQP29
https://rapidgator.net/file/4910718e2ad5a313d8d51b09c6824ac8
https://rapidgator.net/file/e58d04e7385b98e1b0f8a485327f8574
https://ayefiles.com/ro2y4owrpw4t/Ram-VoeLimEdi.part1.rar.html
https://ayefiles.com/6s8hk63y7ngl/Ram-VoeLimEdi.part2.rar.html
https://hitfile.net/bb2a3QP
https://hitfile.net/qoOmmdO

Onlinestatus: Turbobit.net Rapidgator.net AyeFiles.com Hitfile.net

Tracklist:

CD 1 - Live In Nîmes
1 	Intro 	
2 	Reise, Reise 	
3 	Links 2 3 4 	
4 	Keine Lust 	
5 	Feuer Frei! 	
6 	Asche Zu Asche 	
7 	Morgenstern 	
8 	Mein Teil 	
9 	Stein Um Stein 	
10 	Los 	
CD 2 - Live In Nîmes
1 	Du Riechst So Gut 	
2 	Benzin 	
3 	Du Hast 	
4 	Sehnsucht 	
5 	Amerika 	
6 	Rammstein 	
7 	Sonne 	
8 	Ich Will 	
9 	Ohne Dich 	
10 	Stripped 	
11 	Outro

EAC-Log, CUE-Sheed & NFO:

Click to open spoiler
Exact Audio Copy V0.99 prebeta 3 from 28. July 2007

EAC Auslese-Logdatei vom 11. Juli 2008, 9:03

Rammstein / Voelkerball (Limited Photobook CD1)

Benutztes Laufwerk : SONY DVD RW DW-Q31A Adapter: 0 ID: 0

Lesemodus : Sicher
Benutze Accurate Stream : Ja
Audio Puffer abgeschaltet : Ja
Benutze C2 Fehlerinformationen : Nein

Leseoffset Korrektur : 6
Überlesen in das Lead-In und Lead-Out : Nein
Fülle fehlende Offsetsample mit Stille auf : Ja
Lösche führende und nachfolgende stille Blöcke : Nein
Null Samples gehen in CRC Berechnungen ein : Ja
Benutzte Schnittstelle : Installierte externe ASPI Schnittstelle

Benutztes Ausgabeformat : Interne WAV Routinen
Sampleformat : 44.100 Hz; 16 Bit; Stereo

TOC der ausgelesenen CD

Track | Start | Länge | Startsektor | Endsektor
——————————————————-
1 | 0:00.00 | 2:03.69 | 0 | 9293
2 | 2:03.69 | 5:31.04 | 9294 | 34122
3 | 7:34.73 | 4:50.46 | 34123 | 55918
4 | 12:25.44 | 3:52.34 | 55919 | 73352
5 | 16:18.03 | 3:31.70 | 73353 | 89247
6 | 19:49.73 | 4:05.65 | 89248 | 107687
7 | 23:55.63 | 4:53.03 | 107688 | 129665
8 | 28:48.66 | 6:37.64 | 129666 | 159504
9 | 35:26.55 | 5:26.60 | 159505 | 184014
10 | 40:53.40 | 7:07.01 | 184015 | 216040

Bereichsstatus und Fehler

Gewählter Bereich

Dateiname C:\Rammstein – Complete Discography\Albums\2006 – Völkerball (Limited Edition)\Rammstein – Völkerball (Limited Photobook) CD1.wav

Spitzenpegel 98.8 %
Bereichsqualität 100.0 %
Kopie CRC 0375F09F
Kopie OK

Keine Fehler aufgetreten

AccurateRip Übersicht

Track 1 akkurat gelesen (Zuversicht 8) [0711A82A]
Track 2 akkurat gelesen (Zuversicht 8) [DC532CA8]
Track 3 akkurat gelesen (Zuversicht 8) [338FAFCD]
Track 4 akkurat gelesen (Zuversicht 8) [BC624D05]
Track 5 akkurat gelesen (Zuversicht 8) [E2869C24]
Track 6 akkurat gelesen (Zuversicht 8) [FE2490C8]
Track 7 akkurat gelesen (Zuversicht 8) [9924C805]
Track 8 akkurat gelesen (Zuversicht 8) [A53180F3]
Track 9 akkurat gelesen (Zuversicht 8) [94A29772]
Track 10 akkurat gelesen (Zuversicht 8) [DC781E2B]

Alle Tracks wurden akkurat gelesen

Ende des Statusreports

Exact Audio Copy V0.99 prebeta 3 from 28. July 2007

EAC Auslese-Logdatei vom 11. Juli 2008, 9:30

Rammstein / Voelkerball (Limited Photobook CD2)

Benutztes Laufwerk : SONY DVD RW DW-Q31A Adapter: 0 ID: 0

Lesemodus : Sicher
Benutze Accurate Stream : Ja
Audio Puffer abgeschaltet : Ja
Benutze C2 Fehlerinformationen : Nein

Leseoffset Korrektur : 6
Überlesen in das Lead-In und Lead-Out : Nein
Fülle fehlende Offsetsample mit Stille auf : Ja
Lösche führende und nachfolgende stille Blöcke : Nein
Null Samples gehen in CRC Berechnungen ein : Ja
Benutzte Schnittstelle : Installierte externe ASPI Schnittstelle

Benutztes Ausgabeformat : Interne WAV Routinen
Sampleformat : 44.100 Hz; 16 Bit; Stereo

TOC der ausgelesenen CD

Track | Start | Länge | Startsektor | Endsektor
——————————————————-
1 | 0:00.00 | 5:50.16 | 0 | 26265
2 | 5:50.16 | 4:05.07 | 26266 | 44647
3 | 9:55.23 | 4:20.52 | 44648 | 64199
4 | 14:16.00 | 4:22.55 | 64200 | 83904
5 | 18:38.55 | 6:19.63 | 83905 | 112392
6 | 24:58.43 | 5:12.24 | 112393 | 135816
7 | 30:10.67 | 4:51.35 | 135817 | 157676
8 | 35:02.27 | 4:20.64 | 157677 | 177240
9 | 39:23.16 | 5:08.31 | 177241 | 200371
10 | 44:31.47 | 8:15.48 | 200372 | 237544
11 | 52:47.20 | 4:32.12 | 237545 | 257956

Bereichsstatus und Fehler

Gewählter Bereich

Dateiname C:\Rammstein – Complete Discography\Albums\2006 – Völkerball (Limited Edition)\Rammstein – Völkerball (Limited Photobook CD2).wav

Spitzenpegel 98.8 %
Bereichsqualität 100.0 %
Kopie CRC D4AE33F2
Kopie OK

Keine Fehler aufgetreten

AccurateRip Übersicht

Track 1 akkurat gelesen (Zuversicht 5) [88597D3D]
Track 2 akkurat gelesen (Zuversicht 5) [1951D23D]
Track 3 akkurat gelesen (Zuversicht 5) [A9887910]
Track 4 akkurat gelesen (Zuversicht 5) [81769073]
Track 5 akkurat gelesen (Zuversicht 5) [57F0A428]
Track 6 akkurat gelesen (Zuversicht 5) [8E3D17CE]
Track 7 akkurat gelesen (Zuversicht 5) [7DE3C33D]
Track 8 akkurat gelesen (Zuversicht 5) [23DCDC69]
Track 9 akkurat gelesen (Zuversicht 5) [F0BBF3BF]
Track 10 akkurat gelesen (Zuversicht 5) [705D0B26]
Track 11 akkurat gelesen (Zuversicht 5) [BE46D17D]

Alle Tracks wurden akkurat gelesen

Ende des Statusreports

REM GENRE Industrial
REM DATE 2006
REM DISCID 7F0B400A
REM COMMENT “ExactAudioCopy v0.99pb3”
PERFORMER “Rammstein”
TITLE “Voelkerball (Limited Photobook) CD1”
FILE “Rammstein – Voelkerball (Limited Photobook CD1).flac” WAVE
TRACK 01 AUDIO
TITLE “Intro”
PERFORMER “Rammstein”
INDEX 01 00:00:00
TRACK 02 AUDIO
TITLE “Reise, Reise”
PERFORMER “Rammstein”
INDEX 01 02:03:69
TRACK 03 AUDIO
TITLE “Links 2 3 4”
PERFORMER “Rammstein”
INDEX 01 07:34:73
TRACK 04 AUDIO
TITLE “Keine Lust”
PERFORMER “Rammstein”
INDEX 01 12:25:44
TRACK 05 AUDIO
TITLE “Feuer frei!”
PERFORMER “Rammstein”
INDEX 01 16:18:03
TRACK 06 AUDIO
TITLE “Asche zu Asche”
PERFORMER “Rammstein”
INDEX 01 19:49:73
TRACK 07 AUDIO
TITLE “Morgenstern”
PERFORMER “Rammstein”
INDEX 01 23:55:63
TRACK 08 AUDIO
TITLE “Mein Teil”
PERFORMER “Rammstein”
INDEX 01 28:48:66
TRACK 09 AUDIO
TITLE “Stein um Stein”
PERFORMER “Rammstein”
INDEX 01 35:26:55
TRACK 10 AUDIO
TITLE “Los”
PERFORMER “Rammstein”
INDEX 01 40:53:40

REM GENRE Industrial
REM DATE 2006
REM DISCID 880D6F0B
REM COMMENT “ExactAudioCopy v0.99pb3”
PERFORMER “Rammstein”
TITLE “Voelkerball (Limited Photobook CD2)”
FILE “Rammstein – Voelkerball (Limited Photobook CD2).flac” WAVE
TRACK 01 AUDIO
TITLE “Du Riechst So Gut”
PERFORMER “Rammstein”
INDEX 01 00:00:00
TRACK 02 AUDIO
TITLE “Benzin”
PERFORMER “Rammstein”
INDEX 01 05:50:16
TRACK 03 AUDIO
TITLE “Du Hast”
PERFORMER “Rammstein”
INDEX 01 09:55:23
TRACK 04 AUDIO
TITLE “Sehnsucht”
PERFORMER “Rammstein”
INDEX 01 14:16:00
TRACK 05 AUDIO
TITLE “Amerika”
PERFORMER “Rammstein”
INDEX 01 18:38:55
TRACK 06 AUDIO
TITLE “Rammstein”
PERFORMER “Rammstein”
INDEX 01 24:58:43
TRACK 07 AUDIO
TITLE “Sonne”
PERFORMER “Rammstein”
INDEX 01 30:10:67
TRACK 08 AUDIO
TITLE “Ich Will”
PERFORMER “Rammstein”
INDEX 01 35:02:27
TRACK 09 AUDIO
TITLE “Ohne Dich”
PERFORMER “Rammstein”
INDEX 01 39:23:16
TRACK 10 AUDIO
TITLE “Stripped”
PERFORMER “Rammstein”
INDEX 01 44:31:47
TRACK 11 AUDIO
TITLE “Outro”
PERFORMER “Rammstein”
INDEX 01 52:47:20

Leave a Reply

Your email address will not be published. Required fields are marked *

This site uses Akismet to reduce spam. Learn how your comment data is processed.