Rammstein – Sehnsucht




Artist: Rammstein
Year: 1997
Genre: Rock
Notes: Discogs
Add. Notes:
Cover incl.: Yes
Encoder: FLAC
Bitrate: ~1100 kBit/s (44.1 kHz/16 Bit/s)
Log & Cue incl.: Yes
Size: 341,19 MB
Password: “slam” (without ” “)


All Downloads/Hosters are compatible

Download 1
Turbobit.net
Rapidgator.net
KatFile.com
UploadRar.com
Download 2
Turbobit.net
Rapidgator.net
KatFile.com
UploadRar.com
Download 3
Turbobit.net
Rapidgator.net
KatFile.com
UploadRar.com

Tracklist:

1 - Sehnsucht - 4:04
2 - Engel - 4:24
3 - Tier - 3:46
4 - Bestrafe Mich - 3:36
5 - Du Hast - 3:54
6 - Bück Dich - 3:21
7 - Spiel Mit Mir - 4:45
8 - Klavier - 4:22
9 - Alter Mann - 4:22
10 - Eifersucht - 3:35
11 - Küss Mich (Fellfrosch) - 3:30

EAC-Log, CUE-Sheed & NFO:

Click to open spoiler
Exact Audio Copy V0.99 prebeta 3 from 28. July 2007

EAC Auslese-Logdatei vom 30. Juli 2008, 6:56

Rammstein / Sehnsucht

Benutztes Laufwerk : SONY DVD RW DW-Q31A Adapter: 0 ID: 0

Lesemodus : Sicher
Benutze Accurate Stream : Ja
Audio Puffer abgeschaltet : Ja
Benutze C2 Fehlerinformationen : Nein

Leseoffset Korrektur : 6
Überlesen in das Lead-In und Lead-Out : Nein
Fülle fehlende Offsetsample mit Stille auf : Ja
Lösche führende und nachfolgende stille Blöcke : Nein
Null Samples gehen in CRC Berechnungen ein : Ja
Benutzte Schnittstelle : Installierte externe ASPI Schnittstelle

Benutztes Ausgabeformat : Interne WAV Routinen
Sampleformat : 44.100 Hz; 16 Bit; Stereo

TOC der ausgelesenen CD

Track | Start | Länge | Startsektor | Endsektor
——————————————————-
1 | 0:00.32 | 4:04.33 | 32 | 18364
2 | 4:04.65 | 4:24.45 | 18365 | 38209
3 | 8:29.35 | 3:47.67 | 38210 | 55301
4 | 12:17.27 | 3:38.65 | 55302 | 71716
5 | 15:56.17 | 3:55.43 | 71717 | 89384
6 | 19:51.60 | 3:22.52 | 89385 | 104586
7 | 23:14.37 | 4:46.65 | 104587 | 126101
8 | 28:01.27 | 4:24.68 | 126102 | 145969
9 | 32:26.20 | 4:24.27 | 145970 | 165796
10 | 36:50.47 | 3:37.15 | 165797 | 182086
11 | 40:27.62 | 3:30.28 | 182087 | 197864

Bereichsstatus und Fehler

Gewählter Bereich

Dateiname C:\Rammstein – Complete Discography\Albums\1997 – Sehnsucht\Rammstein – Sehnsucht.wav

Spitzenpegel 100.0 %
Bereichsqualität 100.0 %
Kopie CRC 394250D4
Kopie OK

Keine Fehler aufgetreten

AccurateRip Übersicht

Track 1 akkurat gelesen (Zuversicht 27) [F69596EE]
Track 2 akkurat gelesen (Zuversicht 26) [9AAE3B9F]
Track 3 akkurat gelesen (Zuversicht 26) [30A4301A]
Track 4 akkurat gelesen (Zuversicht 26) [7D45FDDB]
Track 5 akkurat gelesen (Zuversicht 26) [5C3080A0]
Track 6 akkurat gelesen (Zuversicht 26) [140F2FC1]
Track 7 akkurat gelesen (Zuversicht 26) [06D601A6]
Track 8 akkurat gelesen (Zuversicht 26) [9EE10E78]
Track 9 akkurat gelesen (Zuversicht 26) [81914C48]
Track 10 akkurat gelesen (Zuversicht 25) [30CA2B93]
Track 11 akkurat gelesen (Zuversicht 25) [D7D0089C]

Alle Tracks wurden akkurat gelesen

Ende des Statusreports

REM GENRE “Industrial Rock”
REM DATE 1997
REM DISCID 9F0A4E0B
REM COMMENT “ExactAudioCopy v0.99pb3”
PERFORMER “Rammstein”
TITLE “Sehnsucht”
FILE “Rammstein – Sehnsucht.flac” WAVE
TRACK 01 AUDIO
TITLE “Sehnsucht”
PERFORMER “Rammstein”
INDEX 00 00:00:00
INDEX 01 00:00:32
TRACK 02 AUDIO
TITLE “Engel”
PERFORMER “Rammstein”
INDEX 01 04:04:65
TRACK 03 AUDIO
TITLE “Tier”
PERFORMER “Rammstein”
INDEX 00 08:29:10
INDEX 01 08:29:35
TRACK 04 AUDIO
TITLE “Bestrafe mich”
PERFORMER “Rammstein”
INDEX 00 12:15:40
INDEX 01 12:17:27
TRACK 05 AUDIO
TITLE “Du hast”
PERFORMER “Rammstein”
INDEX 00 15:54:17
INDEX 01 15:56:17
TRACK 06 AUDIO
TITLE “Bueck Dich”
PERFORMER “Rammstein”
INDEX 00 19:50:35
INDEX 01 19:51:60
TRACK 07 AUDIO
TITLE “Spiel mit mir”
PERFORMER “Rammstein”
INDEX 00 23:13:25
INDEX 01 23:14:37
TRACK 08 AUDIO
TITLE “Klavier”
PERFORMER “Rammstein”
INDEX 00 27:59:54
INDEX 01 28:01:27
TRACK 09 AUDIO
TITLE “Alter Mann”
PERFORMER “Rammstein”
INDEX 00 32:23:32
INDEX 01 32:26:20
TRACK 10 AUDIO
TITLE “Eifersucht”
PERFORMER “Rammstein”
INDEX 00 36:48:72
INDEX 01 36:50:47
TRACK 11 AUDIO
TITLE “Kuess mich (Fellfrosch)”
PERFORMER “Rammstein”
INDEX 00 40:26:37
INDEX 01 40:27:62


Leave a Reply

Your email address will not be published. Required fields are marked *

This site uses Akismet to reduce spam. Learn how your comment data is processed.