Rammstein – Sehnsucht (Japanese Edition)




No Cover available

Artist: Rammstein
Year: 1997/1998
Genre: Metal
Notes: Discogs
Add. Notes: Japanese Edition
Watch Songs on: YouTube
Cover incl.: Yes
Encoder: FLAC
Bitrate: ~1000 kBit/s (44.1 kHz/16 Bit/s)
Log & Cue incl.: Yes/Yes
Size: 443,8 MB
Password: “slam” (without ” “)


All Downloads/Hosters are compatible

Download 1
KatFile.com
Turbobit.net
Rapidgator.net
FileFactory.com
Download 2
KatFile.com
Turbobit.net
Rapidgator.net
FileFactory.com

Tracklist:

1 Sehnsucht 4:04
2 Engel 4:24
3 Tier 3:46
4 Bestrafe Mich 3:36
5 Du Hast 3:54
6 Bück Dich 3:21
7 Spiel Mit Mir 4:45
8 Klavier 4:22
9 Alter Mann 4:22
10 Eifersucht 3:35
11 Küss Mich (Fellfrosch) 3:30

Bonus Tracks:
12 Engel (English Version) 4:25
13 Du Hast (English Version) 3:54

EAC-Log, CUE-Sheed & NFO:

Click to open spoiler
Exact Audio Copy V0.99 prebeta 5 from 4. May 2009

EAC extraction logfile from 4. December 2010, 22:20

Rammstein / Sehnsucht

Used drive : TSSTcorpCDDVDW TS-L632H Adapter: 1 ID: 0

Read mode : Secure
Utilize accurate stream : Yes
Defeat audio cache : Yes
Make use of C2 pointers : No

Read offset correction : 6
Overread into Lead-In and Lead-Out : No
Fill up missing offset samples with silence : Yes
Delete leading and trailing silent blocks : No
Null samples used in CRC calculations : Yes
Used interface : Native Win32 interface for Win NT & 2000
Gap handling : Appended to previous track

Used output format : User Defined Encoder
Selected bitrate : 128 kBit/s
Quality : High
Add ID3 tag : No
Command line compressor : C:\Program Files\Exact Audio Copy\Flac\flac.exe
Additional command line options : -8 -V -T “ARTIST=%a” -T “TITLE=%t” -T “ALBUM=%g” -T “DATE=%y” -T “TRACKNUMBER=%n” -T “GENRE=%m” -T “COMMENT=EAC FLAC -8” %s

TOC of the extracted CD

Track | Start | Length | Start sector | End sector
———————————————————
1 | 0:00.37 | 4:04.10 | 37 | 18346
2 | 4:04.47 | 4:24.43 | 18347 | 38189
3 | 8:29.15 | 3:47.65 | 38190 | 55279
4 | 12:17.05 | 3:38.65 | 55280 | 71694
5 | 15:55.70 | 3:55.45 | 71695 | 89364
6 | 19:51.40 | 3:22.50 | 89365 | 104564
7 | 23:14.15 | 4:46.62 | 104565 | 126076
8 | 28:01.02 | 4:24.63 | 126077 | 145939
9 | 32:25.65 | 4:24.30 | 145940 | 165769
10 | 36:50.20 | 3:37.12 | 165770 | 182056
11 | 40:27.32 | 3:31.20 | 182057 | 197901
12 | 43:58.52 | 4:25.18 | 197902 | 217794
13 | 48:23.70 | 3:54.52 | 217795 | 235396

Track 1

Filename H:\Rammstein Japan\Rammstein [Japan] new\1997 Sehnsucht [Japan Edition]\01. Rammstein – Sehnsucht.wav

Pre-gap length 0:00:02.37

Peak level 100.0 %
Track quality 100.0 %
Test CRC 5E0474BE
Copy CRC 5E0474BE
Accurately ripped (confidence 5) [93CC29F2]
Copy OK

Track 2

Filename H:\Rammstein Japan\Rammstein [Japan] new\1997 Sehnsucht [Japan Edition]\02. Rammstein – Engel.wav

Pre-gap length 0:00:00.54

Peak level 100.0 %
Track quality 100.0 %
Test CRC 06EC4E82
Copy CRC 06EC4E82
Accurately ripped (confidence 5) [5D623635]
Copy OK

Track 3

Filename H:\Rammstein Japan\Rammstein [Japan] new\1997 Sehnsucht [Japan Edition]\03. Rammstein – Tier.wav

Pre-gap length 0:00:00.42

Peak level 100.0 %
Track quality 100.0 %
Test CRC 53E999E6
Copy CRC 53E999E6
Accurately ripped (confidence 5) [92F32C15]
Copy OK

Track 4

Filename H:\Rammstein Japan\Rammstein [Japan] new\1997 Sehnsucht [Japan Edition]\04. Rammstein – Bestrafe Mich.wav

Pre-gap length 0:00:01.69

Peak level 100.0 %
Track quality 100.0 %
Test CRC A9135D87
Copy CRC A9135D87
Accurately ripped (confidence 5) [689D9DA6]
Copy OK

Track 5

Filename H:\Rammstein Japan\Rammstein [Japan] new\1997 Sehnsucht [Japan Edition]\05. Rammstein – Du Hast.wav

Pre-gap length 0:00:02.04

Peak level 100.0 %
Track quality 100.0 %
Test CRC 64CDC974
Copy CRC 64CDC974
Accurately ripped (confidence 5) [A2774091]
Copy OK

Track 6

Filename H:\Rammstein Japan\Rammstein [Japan] new\1997 Sehnsucht [Japan Edition]\06. Rammstein – Buck Dich.wav

Pre-gap length 0:00:01.32

Peak level 100.0 %
Track quality 100.0 %
Test CRC 2AD26BDD
Copy CRC 2AD26BDD
Accurately ripped (confidence 5) [08DBB1F4]
Copy OK

Track 7

Filename H:\Rammstein Japan\Rammstein [Japan] new\1997 Sehnsucht [Japan Edition]\07. Rammstein – Spiel Mit Mir.wav

Pre-gap length 0:00:01.22

Peak level 100.0 %
Track quality 100.0 %
Test CRC E67899F5
Copy CRC E67899F5
Accurately ripped (confidence 5) [CAA4AA80]
Copy OK

Track 8

Filename H:\Rammstein Japan\Rammstein [Japan] new\1997 Sehnsucht [Japan Edition]\08. Rammstein – Klavier.wav

Pre-gap length 0:00:01.64

Peak level 100.0 %
Track quality 100.0 %
Test CRC B7974139
Copy CRC B7974139
Accurately ripped (confidence 5) [22BB0CEB]
Copy OK

Track 9

Filename H:\Rammstein Japan\Rammstein [Japan] new\1997 Sehnsucht [Japan Edition]\09. Rammstein – Alter Mann.wav

Pre-gap length 0:00:03.04

Peak level 100.0 %
Track quality 100.0 %
Test CRC 0663DB1C
Copy CRC 0663DB1C
Accurately ripped (confidence 5) [6E7B078E]
Copy OK

Track 10

Filename H:\Rammstein Japan\Rammstein [Japan] new\1997 Sehnsucht [Japan Edition]\10. Rammstein – Eifersucht.wav

Pre-gap length 0:00:01.67

Peak level 100.0 %
Track quality 99.9 %
Test CRC 26A77C47
Copy CRC 26A77C47
Accurately ripped (confidence 5) [B311B509]
Copy OK

Track 11

Filename H:\Rammstein Japan\Rammstein [Japan] new\1997 Sehnsucht [Japan Edition]\11. Rammstein – Kuss Mich [Fellfrosch].wav

Pre-gap length 0:00:01.34

Peak level 100.0 %
Track quality 100.0 %
Test CRC BAA0BEEE
Copy CRC BAA0BEEE
Accurately ripped (confidence 5) [C58C76D8]
Copy OK

Track 12

Filename H:\Rammstein Japan\Rammstein [Japan] new\1997 Sehnsucht [Japan Edition]\12. Rammstein – Engel (English Version).wav

Pre-gap length 0:00:00.64

Peak level 100.0 %
Track quality 100.0 %
Test CRC 223F479C
Copy CRC 223F479C
Accurately ripped (confidence 5) [CB8481F4]
Copy OK

Track 13

Filename H:\Rammstein Japan\Rammstein [Japan] new\1997 Sehnsucht [Japan Edition]\13. Rammstein – Du Hast (English Version).wav

Pre-gap length 0:00:00.17

Peak level 99.9 %
Track quality 100.0 %
Test CRC 7E6EC045
Copy CRC 7E6EC045
Accurately ripped (confidence 5) [813A525E]
Copy OK

All tracks accurately ripped

No errors occurred

End of status report

REM GENRE Industrial
REM DATE 1997
REM DISCID B90C420D
REM COMMENT “ExactAudioCopy v0.99pb5”
PERFORMER “Rammstein”
TITLE “Sehnsucht”
FILE “01. Rammstein – Sehnsucht.wav” WAVE
TRACK 01 AUDIO
TITLE “Sehnsucht”
PERFORMER “Rammstein”
PREGAP 00:00:37
INDEX 01 00:00:00
TRACK 02 AUDIO
TITLE “Engel”
PERFORMER “Rammstein”
INDEX 00 04:03:31
FILE “02. Rammstein – Engel.wav” WAVE
INDEX 01 00:00:00
TRACK 03 AUDIO
TITLE “Tier”
PERFORMER “Rammstein”
INDEX 00 04:24:01
FILE “03. Rammstein – Tier.wav” WAVE
INDEX 01 00:00:00
TRACK 04 AUDIO
TITLE “Bestrafe Mich”
PERFORMER “Rammstein”
INDEX 00 03:45:71
FILE “04. Rammstein – Bestrafe Mich.wav” WAVE
INDEX 01 00:00:00
TRACK 05 AUDIO
TITLE “Du Hast”
PERFORMER “Rammstein”
INDEX 00 03:36:61
FILE “05. Rammstein – Du Hast.wav” WAVE
INDEX 01 00:00:00
TRACK 06 AUDIO
TITLE “Buck Dich”
PERFORMER “Rammstein”
INDEX 00 03:54:13
FILE “06. Rammstein – Buck Dich.wav” WAVE
INDEX 01 00:00:00
TRACK 07 AUDIO
TITLE “Spiel Mit Mir”
PERFORMER “Rammstein”
INDEX 00 03:21:28
FILE “07. Rammstein – Spiel Mit Mir.wav” WAVE
INDEX 01 00:00:00
TRACK 08 AUDIO
TITLE “Klavier”
PERFORMER “Rammstein”
INDEX 00 04:44:73
FILE “08. Rammstein – Klavier.wav” WAVE
INDEX 01 00:00:00
TRACK 09 AUDIO
TITLE “Alter Mann”
PERFORMER “Rammstein”
INDEX 00 04:21:59
FILE “09. Rammstein – Alter Mann.wav” WAVE
INDEX 01 00:00:00
TRACK 10 AUDIO
TITLE “Eifersucht”
PERFORMER “Rammstein”
INDEX 00 04:22:38
FILE “10. Rammstein – Eifersucht.wav” WAVE
INDEX 01 00:00:00
TRACK 11 AUDIO
TITLE “Kuss Mich [Fellfrosch]”
PERFORMER “Rammstein”
INDEX 00 03:35:53
FILE “11. Rammstein – Kuss Mich [Fellfrosch].wav” WAVE
INDEX 01 00:00:00
TRACK 12 AUDIO
TITLE “Engel (English Version)”
PERFORMER “Rammstein”
INDEX 00 03:30:31
FILE “12. Rammstein – Engel (English Version).wav” WAVE
INDEX 01 00:00:00
TRACK 13 AUDIO
TITLE “Du Hast (English Version)”
PERFORMER “Rammstein”
INDEX 00 04:25:01
FILE “13. Rammstein – Du Hast (English Version).wav” WAVE
INDEX 01 00:00:00


Leave a Reply

Your email address will not be published. Required fields are marked *

Enter the text from the image below
 

This site uses Akismet to reduce spam. Learn how your comment data is processed.