Rammstein – Sehnsucht: Australian Tour Edition (Limited Edition)




Artist: Rammstein
Year: 1997/2001
Genre: Rock
Notes: Discogs
Add. Notes: Limited Edition
Cover incl.: Yes
Encoder: FLAC
Bitrate: ~1000 kBit/s (44.1 kHz/16 Bit/s)
Log & Cue incl.: Yes
Size: 704,46 MB
Password: “slam” (without ” “)


All Downloads/Hosters are compatible

Download 1
Turbobit.net
Rapidgator.net
KatFile.com
UploadRar.com
Download 2
Turbobit.net
Rapidgator.net
KatFile.com
UploadRar.com
Download 3
Turbobit.net
Rapidgator.net
KatFile.com
UploadRar.com

Tracklist:

CD1 - Sehnsucht
1-1 - Sehnsucht - 4:05
1-2 - Engel - 4:25
1-3 - Tier - 3:47
1-4 - Bestrafe Mich - 3:38
1-5 - Du Hast - 3:55
1-6 - Bück Dich - 3:23
1-7 - Spiel Mit Mir - 4:46
1-8 - Klavier - 4:23
1-9 - Alter Mann - 4:24
1-10 - Eifersucht - 3:37
1-11 - Küss Mich (Fellfrosch) - 3:31
1-12 - Stripped - 4:45
CD2 - Asche Zu Asche
2-1 - Asche Zu Asche (Album Version) - 3:51
2-2 - Spiel Mit Mir (Live Version) - 5:22
2-3 - Laichzeit (Live Version) - 5:14
2-4 - Wollt Ihr Das Bett In Flammen Sehen? (Live 
Version) - 5:52
2-5 - Engel (Live Version) - 5:57
2-6 - Asche Zu Asche (Live Version) - 3:24

EAC-Log, CUE-Sheed & NFO:

Click to open spoiler
Exact Audio Copy V0.99 prebeta 5 from 4. May 2009

EAC Auslese-Logdatei vom 6. Februar 2010, 4:35

Rammstein / Sehnsucht (Australian Tour Edition) (Disc 1)

Benutztes Laufwerk : HL-DT-STDVD-ROM GDR-H30N Adapter: 0 ID: 1

Lesemodus : Sicher
Benutze Accurate Stream : Ja
Audio Puffer abgeschaltet : Ja
Benutze C2 Fehlerinformationen : Nein

Leseoffset Korrektur : 6
Überlesen in das Lead-In und Lead-Out : Nein
Fülle fehlende Offsetsample mit Stille auf : Ja
Lösche führende und nachfolgende stille Blöcke : Nein
Null Samples gehen in CRC Berechnungen ein : Ja
Benutzte Schnittstelle : Installierte externe ASPI Schnittstelle

Benutztes Ausgabeformat : Interne WAV Routinen
Sampleformat : 44.100 Hz; 16 Bit; Stereo

TOC der ausgelesenen CD

Track | Start | Länge | Startsektor | Endsektor
——————————————————-
1 | 0:00.00 | 4:05.62 | 0 | 18436
2 | 4:05.62 | 4:25.45 | 18437 | 38356
3 | 8:31.32 | 3:47.43 | 38357 | 55424
4 | 12:19.00 | 3:38.25 | 55425 | 71799
5 | 15:57.25 | 3:55.65 | 71800 | 89489
6 | 19:53.15 | 3:23.07 | 89490 | 104721
7 | 23:16.22 | 4:46.53 | 104722 | 126224
8 | 28:03.00 | 4:23.40 | 126225 | 145989
9 | 32:26.40 | 4:24.15 | 145990 | 165804
10 | 36:50.55 | 3:37.27 | 165805 | 182106
11 | 40:28.07 | 3:31.68 | 182107 | 197999
12 | 44:00.00 | 4:45.15 | 198000 | 219389

Bereichsstatus und Fehler

Gewählter Bereich

Dateiname K:\Rammstein – Discography\Albums\1997 – Sehnsucht – Australian Tour Edition\Rammstein – Sehnsucht (Australian Tour Edition) (Disc 1).wav

Spitzenpegel 100.0 %
Bereichsqualität 100.0 %
Kopie CRC 47442EF7
Kopie OK

Keine Fehler aufgetreten

AccurateRip Übersicht

Track 1 akkurat gelesen (Zuversicht 5) [A860CAB9]
Track 2 akkurat gelesen (Zuversicht 5) [640C463F]
Track 3 akkurat gelesen (Zuversicht 5) [1DB49BA2]
Track 4 akkurat gelesen (Zuversicht 5) [D4CD34D9]
Track 5 akkurat gelesen (Zuversicht 5) [9CF53930]
Track 6 akkurat gelesen (Zuversicht 5) [C7340918]
Track 7 akkurat gelesen (Zuversicht 5) [40214695]
Track 8 akkurat gelesen (Zuversicht 5) [A4755789]
Track 9 akkurat gelesen (Zuversicht 5) [FC12BFA5]
Track 10 akkurat gelesen (Zuversicht 5) [9688C7A4]
Track 11 akkurat gelesen (Zuversicht 5) [F007DA9F]
Track 12 akkurat gelesen (Zuversicht 5) [8634402A]

Alle Tracks wurden akkurat gelesen

Ende des Statusreports

Exact Audio Copy V0.99 prebeta 5 from 4. May 2009

EAC Auslese-Logdatei vom 6. Februar 2010, 18:13

Rammstein / Sehnsucht (Australian Tour Edition) (Disc 2)

Benutztes Laufwerk : HL-DT-STDVD-ROM GDR-H30N Adapter: 0 ID: 1

Lesemodus : Sicher
Benutze Accurate Stream : Ja
Audio Puffer abgeschaltet : Ja
Benutze C2 Fehlerinformationen : Nein

Leseoffset Korrektur : 6
Überlesen in das Lead-In und Lead-Out : Nein
Fülle fehlende Offsetsample mit Stille auf : Ja
Lösche führende und nachfolgende stille Blöcke : Nein
Null Samples gehen in CRC Berechnungen ein : Ja
Benutzte Schnittstelle : Installierte externe ASPI Schnittstelle

Benutztes Ausgabeformat : Interne WAV Routinen
Sampleformat : 44.100 Hz; 16 Bit; Stereo

TOC der ausgelesenen CD

Track | Start | Länge | Startsektor | Endsektor
——————————————————-
1 | 0:00.00 | 3:53.32 | 0 | 17506
2 | 3:53.32 | 5:19.35 | 17507 | 41466
3 | 9:12.67 | 5:14.63 | 41467 | 65079
4 | 14:27.55 | 5:53.60 | 65080 | 91614
5 | 20:21.40 | 5:58.02 | 91615 | 118466
6 | 26:19.42 | 3:30.63 | 118467 | 134279

Bereichsstatus und Fehler

Gewählter Bereich

Dateiname K:\Rammstein – Discography\Albums\1997 – Sehnsucht – Australian Tour Edition\Rammstein – Sehnsucht (Australian Tour Edition) (Disc 2).wav

Spitzenpegel 100.0 %
Bereichsqualität 100.0 %
Kopie CRC 614B6262
Kopie OK

Keine Fehler aufgetreten

AccurateRip Übersicht

Track 1 akkurat gelesen (Zuversicht 5) [7E7FDCD7]
Track 2 akkurat gelesen (Zuversicht 4) [5B52B2D0]
Track 3 akkurat gelesen (Zuversicht 4) [69D83360]
Track 4 akkurat gelesen (Zuversicht 4) [98D26BF4]
Track 5 akkurat gelesen (Zuversicht 4) [9D1C28C6]
Track 6 akkurat gelesen (Zuversicht 4) [09B1D2F6]

Alle Tracks wurden akkurat gelesen

Ende des Statusreports

REM GENRE Metal
REM DATE 1998
REM DISCID A80B6D0C
REM COMMENT “ExactAudioCopy v0.99pb5”
PERFORMER “Rammstein”
TITLE “Sehnsucht (Australian Tour Edition) (Disc 1)”
FILE “Rammstein – Sehnsucht (Australian Tour Edition) (Disc 1).flac” WAVE
TRACK 01 AUDIO
TITLE “Sehnsucht”
PERFORMER “Rammstein”
INDEX 01 00:00:00
TRACK 02 AUDIO
TITLE “Engel”
PERFORMER “Rammstein”
INDEX 00 04:04:07
INDEX 01 04:05:62
TRACK 03 AUDIO
TITLE “Tier”
PERFORMER “Rammstein”
INDEX 00 08:29:52
INDEX 01 08:31:32
TRACK 04 AUDIO
TITLE “Bestrafe mich”
PERFORMER “Rammstein”
INDEX 00 12:17:20
INDEX 01 12:19:00
TRACK 05 AUDIO
TITLE “Du hast”
PERFORMER “Rammstein”
INDEX 00 15:55:45
INDEX 01 15:57:25
TRACK 06 AUDIO
TITLE “Bück dich”
PERFORMER “Rammstein”
INDEX 00 19:51:35
INDEX 01 19:53:15
TRACK 07 AUDIO
TITLE “Spiel mit mir”
PERFORMER “Rammstein”
INDEX 00 23:14:42
INDEX 01 23:16:22
TRACK 08 AUDIO
TITLE “Klavier”
PERFORMER “Rammstein”
INDEX 00 28:01:20
INDEX 01 28:03:00
TRACK 09 AUDIO
TITLE “Alter Mann”
PERFORMER “Rammstein”
INDEX 00 32:24:60
INDEX 01 32:26:40
TRACK 10 AUDIO
TITLE “Eifersucht”
PERFORMER “Rammstein”
INDEX 00 36:49:00
INDEX 01 36:50:55
TRACK 11 AUDIO
TITLE “Küss mich (Fellfrosch)”
PERFORMER “Rammstein”
INDEX 00 40:26:25
INDEX 01 40:28:07
TRACK 12 AUDIO
TITLE “Stripped”
PERFORMER “Rammstein”
INDEX 00 43:58:20
INDEX 01 44:00:00

REM GENRE Rock
REM DATE 2001
REM DISCID 4806FE06
REM COMMENT “ExactAudioCopy v0.99pb5”
PERFORMER “Rammstein”
TITLE “Sehnsucht (Australian Tour Edition) (Disc 2) ”
FILE “Rammstein – Sehnsucht (Australian Tour Edition) (Disc 2).flac” WAVE
TRACK 01 AUDIO
TITLE “Asche Zu Asche (Album Version)”
PERFORMER “Rammstein”
INDEX 01 00:00:00
TRACK 02 AUDIO
TITLE “Spiel Mit Mir (Live Version)”
PERFORMER “Rammstein”
INDEX 00 03:47:56
INDEX 01 03:53:32
TRACK 03 AUDIO
TITLE “Laichzeit (Live Version)”
PERFORMER “Rammstein”
INDEX 00 09:08:13
INDEX 01 09:12:67
TRACK 04 AUDIO
TITLE “Wollt Ihr Das Bett In Flammen Sehen? (Live Version)”
PERFORMER “Rammstein”
INDEX 00 14:24:01
INDEX 01 14:27:55
TRACK 05 AUDIO
TITLE “Engel (Live Version)”
PERFORMER “Rammstein”
INDEX 00 20:17:61
INDEX 01 20:21:40
TRACK 06 AUDIO
TITLE “Asche Zu Asche (Live Version)”
PERFORMER “Rammstein”
INDEX 00 26:14:61
INDEX 01 26:19:42


Leave a Reply

Your email address will not be published. Required fields are marked *

Enter the text from the image below
 

This site uses Akismet to reduce spam. Learn how your comment data is processed.